<?xml version="1.0" standalone="no"?><!DOCTYPE svg PUBLIC "-//W3C//DTD SVG 1.1//EN" "http://www.w3.org/Graphics/SVG/1.1/DTD/svg11.dtd" ><svg version="1.1" xmlns="http://www.w3.org/2000/svg"><defs><font horiz-adv-x="0" id="font"><font-face ascent="1040" bbox="-45 -227 1157 995" cap-height="700" descent="-227" font-family="PayPal Sans Small" font-stretch="normal" font-style="normal" font-weight="400" units-per-em="1024" x-height="512" /><missing-glyph horiz-adv-x="277" /><glyph d="M22 0 268 700H369L615 0H523L450 215H184L111 0ZM316 604 209 290H425L319 604Z" glyph-name="A" horiz-adv-x="637" unicode="A" /><glyph d="M22 0 427 700H896V623H579V399H864V322H579V77H909V0H488V224H245L115 0ZM488 299V643L288 299Z" glyph-name="AE" horiz-adv-x="983" unicode="&#198;" /><glyph d="M22 0 427 700H896V623H579V399H864V322H579V77H909V0H488V224H245L115 0ZM488 299V643L288 299ZM778 940 659 762H601L665 940Z" glyph-name="AEacute" horiz-adv-x="983" unicode="&#508;" /><glyph d="M22 0 268 700H369L615 0H523L450 215H184L111 0ZM316 604 209 290H425L319 604ZM469 940 350 762H292L356 940Z" glyph-name="Aacute" horiz-adv-x="637" unicode="&#193;" /><glyph d="M22 0 268 700H369L615 0H523L450 215H184L111 0ZM316 604 209 290H425L319 604ZM318 762Q248 762 208.5 810Q169 858 169 940H229Q232 886 254.5 858.5Q277 831 318 831Q359 831 381.5 859Q404 887 407 940H468Q468 858 428 810Q388 762 318 762Z" glyph-name="Abreve" horiz-adv-x="637" unicode="&#258;" /><glyph d="M22 0 268 700H369L615 0H523L450 215H184L111 0ZM316 604 209 290H425L319 604ZM170 762 269 940H368L466 762H411L318 879L226 762Z" glyph-name="Acircumflex" horiz-adv-x="637" unicode="&#194;" /><glyph d="M22 0 268 700H369L615 0H523L450 215H184L111 0ZM316 604 209 290H425L319 604ZM220 782Q195 782 178 799Q161 816 161 841Q161 866 178 883Q195 900 220 900Q246 900 263 883Q280 866 280 841Q280 816 263 799Q246 782 220 782ZM416 782Q391 782 374 799Q357 816 357 841Q357 866 374 883Q391 900 416 900Q441 900 458 883Q475 866 475 841Q475 816 458 799Q441 782 416 782Z" glyph-name="Adieresis" horiz-adv-x="637" unicode="&#196;" /><glyph d="M22 0 268 700H369L615 0H523L450 215H184L111 0ZM316 604 209 290H425L319 604ZM289 940 354 762H295L177 940Z" glyph-name="Agrave" horiz-adv-x="637" unicode="&#192;" /><glyph d="M22 0 268 700H369L615 0H523L450 215H184L111 0ZM316 604 209 290H425L319 604ZM473 857V786H164V857Z" glyph-name="Amacron" horiz-adv-x="637" unicode="&#256;" /><glyph d="M419 -136Q419 -93 452 -52Q476 -22 520 9L450 215H184L111 0H22L268 700H369L615 0H577Q529 -34 508 -63Q486 -93 486 -123Q486 -143 499.5 -154.5Q513 -166 536 -166Q554 -166 573 -161Q592 -156 614 -145V-201Q597 -213 573 -219.5Q549 -226 523 -226Q478 -226 448.5 -200.5Q419 -175 419 -136ZM316 604 209 290H425L319 604Z" glyph-name="Aogonek" horiz-adv-x="637" unicode="&#260;" /><glyph d="M22 0 259 676Q242 686 226 701Q188 740 188 791Q188 842 226.5 880.5Q265 919 316 919Q368 919 406.5 881Q445 843 445 791Q445 740 406 701Q392 687 376 678L615 0H523L450 215H184L111 0ZM316 604 209 290H425L319 604ZM316 863Q286 863 265.5 842Q245 821 245 791Q245 761 265.5 740.5Q286 720 316 720Q347 720 367.5 740.5Q388 761 388 791Q388 821 367 842Q346 863 316 863Z" glyph-name="Aring" horiz-adv-x="637" unicode="&#197;" /><glyph d="M22 0 268 700H369L615 0H523L450 215H184L111 0ZM316 604 209 290H425L319 604ZM381 761Q364 761 346 772Q328 783 297 818Q273 845 261.5 853Q250 861 240 861Q219 861 204.5 835Q190 809 184 762H127Q129 833 163 883.5Q197 934 244 934Q261 934 279 923Q297 912 328 877Q352 851 363 843Q374 835 384 835Q405 835 420 860.5Q435 886 441 934H498Q495 861 461.5 811Q428 761 381 761Z" glyph-name="Atilde" horiz-adv-x="637" unicode="&#195;" /><glyph d="M528 518Q528 463 496.5 423.5Q465 384 413 370Q483 357 525.5 310.5Q568 264 568 198Q568 105 507.5 52.5Q447 0 340 0H103V700H303Q412 700 470 653Q528 606 528 518ZM292 624H193V398H292Q365 398 401.5 426Q438 454 438 510Q438 567 402 595.5Q366 624 292 624ZM477 201Q477 260 440.5 292Q404 324 335 324H193V76H335Q403 76 440 108.5Q477 141 477 201Z" glyph-name="B" horiz-adv-x="617" unicode="B" /><glyph d="M359 -11Q224 -11 136.5 89.5Q49 190 49 350Q49 510 136.5 610.5Q224 711 359 711Q401 711 440.5 699Q480 687 507 666V578Q479 604 442 617Q405 630 361 630Q264 630 203 552.5Q142 475 142 350Q142 226 203 148.5Q264 71 361 71Q405 71 442 84Q479 97 507 123V34Q480 13 440.5 1Q401 -11 359 -11Z" glyph-name="C" horiz-adv-x="562" unicode="C" /><glyph d="M359 -11Q224 -11 136.5 89.5Q49 190 49 350Q49 510 136.5 610.5Q224 711 359 711Q401 711 440.5 699Q480 687 507 666V578Q479 604 442 617Q405 630 361 630Q264 630 203 552.5Q142 475 142 350Q142 226 203 148.5Q264 71 361 71Q405 71 442 84Q479 97 507 123V34Q480 13 440.5 1Q401 -11 359 -11ZM481 940 362 762H304L368 940Z" glyph-name="Cacute" horiz-adv-x="562" unicode="&#262;" /><glyph d="M359 -11Q224 -11 136.5 89.5Q49 190 49 350Q49 510 136.5 610.5Q224 711 359 711Q401 711 440.5 699Q480 687 507 666V578Q479 604 442 617Q405 630 361 630Q264 630 203 552.5Q142 475 142 350Q142 226 203 148.5Q264 71 361 71Q405 71 442 84Q479 97 507 123V34Q480 13 440.5 1Q401 -11 359 -11ZM245 940 337 823 430 940H485L387 762H288L189 940Z" glyph-name="Ccaron" horiz-adv-x="562" unicode="&#268;" /><glyph d="M425 -129Q425 -172 389.5 -199Q354 -226 300 -226Q268 -226 243 -219.5Q218 -213 200 -201V-143Q225 -158 248 -164.5Q271 -171 297 -171Q327 -171 344.5 -159.5Q362 -148 362 -129Q362 -109 338 -99Q314 -89 266 -89L300 -6Q204 12 136 89Q49 190 49 350Q49 510 136.5 610.5Q224 711 359 711Q401 711 440.5 699Q480 687 507 666V578Q479 604 442 617Q405 630 361 630Q264 630 203 552.5Q142 475 142 350Q142 226 203 148.5Q264 71 361 71Q405 71 442 84Q479 97 507 123V34Q480 13 440.5 1Q401 -11 359 -11Q350 -11 341 -10L327 -48Q375 -54 400 -75Q425 -96 425 -129Z" glyph-name="Ccedilla" horiz-adv-x="562" unicode="&#199;" /><glyph d="M359 -11Q224 -11 136.5 89.5Q49 190 49 350Q49 510 136.5 610.5Q224 711 359 711Q401 711 440.5 699Q480 687 507 666V578Q479 604 442 617Q405 630 361 630Q264 630 203 552.5Q142 475 142 350Q142 226 203 148.5Q264 71 361 71Q405 71 442 84Q479 97 507 123V34Q480 13 440.5 1Q401 -11 359 -11ZM189 762 288 940H387L485 762H430L337 879L245 762Z" glyph-name="Ccircumflex" horiz-adv-x="562" unicode="&#264;" /><glyph d="M359 -11Q224 -11 136.5 89.5Q49 190 49 350Q49 510 136.5 610.5Q224 711 359 711Q401 711 440.5 699Q480 687 507 666V578Q479 604 442 617Q405 630 361 630Q264 630 203 552.5Q142 475 142 350Q142 226 203 148.5Q264 71 361 71Q405 71 442 84Q479 97 507 123V34Q480 13 440.5 1Q401 -11 359 -11ZM337 785Q309 785 291 803Q273 821 273 848Q273 876 291 894.5Q309 913 337 913Q365 913 383 894.5Q401 876 401 848Q401 821 383 803Q365 785 337 785Z" glyph-name="Cdotaccent" horiz-adv-x="562" unicode="&#266;" /><glyph d="M292 0H103V700H292Q446 700 535.5 606.5Q625 513 625 351Q625 188 535.5 94Q446 0 292 0ZM194 623V77H289Q405 77 468.5 149Q532 221 532 351Q532 480 468.5 551.5Q405 623 289 623Z" glyph-name="D" horiz-adv-x="674" unicode="D" /><glyph d="M292 0H103V700H292Q446 700 535.5 606.5Q625 513 625 351Q625 188 535.5 94Q446 0 292 0ZM194 623V77H289Q405 77 468.5 149Q532 221 532 351Q532 480 468.5 551.5Q405 623 289 623ZM244 940 336 823 429 940H484L386 762H287L188 940Z" glyph-name="Dcaron" horiz-adv-x="674" unicode="&#270;" /><glyph d="M301 0H112V322H39V399H112V700H301Q455 700 544.5 606.5Q634 513 634 351Q634 188 544.5 94Q455 0 301 0ZM203 623V399H340V322H203V77H298Q414 77 477.5 149Q541 221 541 351Q541 480 477.5 551.5Q414 623 298 623Z" glyph-name="Dcroat" horiz-adv-x="683" unicode="&#272;" /><glyph d="M523 0H103V700H510V623H193V399H479V322H193V77H523Z" glyph-name="E" horiz-adv-x="598" unicode="E" /><glyph d="M523 0H103V700H510V623H193V399H479V322H193V77H523ZM447 940 328 762H270L334 940Z" glyph-name="Eacute" horiz-adv-x="598" unicode="&#201;" /><glyph d="M523 0H103V700H510V623H193V399H479V322H193V77H523ZM311 762Q241 762 201.5 810Q162 858 162 940H222Q225 886 247.5 858.5Q270 831 311 831Q352 831 374.5 859Q397 887 400 940H461Q461 858 421 810Q381 762 311 762Z" glyph-name="Ebreve" horiz-adv-x="598" unicode="&#276;" /><glyph d="M523 0H103V700H510V623H193V399H479V322H193V77H523ZM219 940 311 823 404 940H459L361 762H262L163 940Z" glyph-name="Ecaron" horiz-adv-x="598" unicode="&#282;" /><glyph d="M523 0H103V700H510V623H193V399H479V322H193V77H523ZM163 762 262 940H361L459 762H404L311 879L219 762Z" glyph-name="Ecircumflex" horiz-adv-x="598" unicode="&#202;" /><glyph d="M523 0H103V700H510V623H193V399H479V322H193V77H523ZM213 782Q188 782 171 799Q154 816 154 841Q154 866 171 883Q188 900 213 900Q239 900 256 883Q273 866 273 841Q273 816 256 799Q239 782 213 782ZM409 782Q384 782 367 799Q350 816 350 841Q350 866 367 883Q384 900 409 900Q434 900 451 883Q468 866 468 841Q468 816 451 799Q434 782 409 782Z" glyph-name="Edieresis" horiz-adv-x="598" unicode="&#203;" /><glyph d="M523 0H103V700H510V623H193V399H479V322H193V77H523ZM311 785Q283 785 265 803Q247 821 247 848Q247 876 265 894.5Q283 913 311 913Q339 913 357 894.5Q375 876 375 848Q375 821 357 803Q339 785 311 785Z" glyph-name="Edotaccent" horiz-adv-x="598" unicode="&#278;" /><glyph d="M523 0H103V700H510V623H193V399H479V322H193V77H523ZM293 940 358 762H299L181 940Z" glyph-name="Egrave" horiz-adv-x="598" unicode="&#200;" /><glyph d="M523 0H103V700H510V623H193V399H479V322H193V77H523ZM466 857V786H157V857Z" glyph-name="Emacron" horiz-adv-x="598" unicode="&#274;" /><glyph d="M522 -215H423Q478 -158 502.5 -105.5Q527 -53 529 8L192 551H188V0H103V700H193L525 158H529V700H614V1Q613 -59 591 -112Q569 -165 522 -215Z" glyph-name="Eng" horiz-adv-x="718" unicode="&#330;" /><glyph d="M315 -136Q315 -93 348 -52Q368 -26 403 0H103V700H510V623H193V399H479V322H193V77H523V0H473Q425 -34 404 -63Q382 -93 382 -123Q382 -143 395.5 -154.5Q409 -166 432 -166Q450 -166 469 -161Q488 -156 510 -145V-201Q493 -213 469 -219.5Q445 -226 419 -226Q374 -226 344.5 -200.5Q315 -175 315 -136Z" glyph-name="Eogonek" horiz-adv-x="598" unicode="&#280;" /><glyph d="M301 0H112V322H39V399H112V700H301Q455 700 544.5 606.5Q634 513 634 351Q634 188 544.5 94Q455 0 301 0ZM203 623V399H340V322H203V77H298Q414 77 477.5 149Q541 221 541 351Q541 480 477.5 551.5Q414 623 298 623Z" glyph-name="Eth" horiz-adv-x="683" unicode="&#208;" /><glyph d="M436 594Q344 594 284 546Q235 507 213 441H446L423 379H39V441H123Q151 539 224 599Q309 669 434 669Q465 669 493 663.5Q521 658 552 647V571Q516 584 491 589Q466 594 436 594ZM383 232H209Q230 155 284 112Q344 64 436 64Q468 64 493.5 69Q519 74 552 87V11Q523 0 495 -5.5Q467 -11 434 -11Q308 -11 223 58Q145 122 119 232H39V293H405Z" glyph-name="Euro" horiz-adv-x="589" unicode="&#8364;" /><glyph d="M503 700V623H193V395H475V317H193V0H103V700Z" glyph-name="F" horiz-adv-x="555" unicode="F" /><glyph d="M546 328V15Q512 3 469 -4Q426 -11 386 -11Q240 -11 144.5 86Q49 183 49 342Q49 504 144.5 607.5Q240 711 385 711Q432 711 472.5 699.5Q513 688 542 666V577Q512 603 472 616.5Q432 630 387 630Q280 630 211 549Q142 468 142 342Q142 218 210.5 143Q279 68 383 68Q407 68 423 70Q439 72 457 78V328Z" glyph-name="G" horiz-adv-x="615" unicode="G" /><glyph d="M546 328V15Q512 3 469 -4Q426 -11 386 -11Q240 -11 144.5 86Q49 183 49 342Q49 504 144.5 607.5Q240 711 385 711Q432 711 472.5 699.5Q513 688 542 666V577Q512 603 472 616.5Q432 630 387 630Q280 630 211 549Q142 468 142 342Q142 218 210.5 143Q279 68 383 68Q407 68 423 70Q439 72 457 78V328ZM365 762Q295 762 255.5 810Q216 858 216 940H276Q279 886 301.5 858.5Q324 831 365 831Q406 831 428.5 859Q451 887 454 940H515Q515 858 475 810Q435 762 365 762Z" glyph-name="Gbreve" horiz-adv-x="615" unicode="&#286;" /><glyph d="M546 328V15Q512 3 469 -4Q426 -11 386 -11Q240 -11 144.5 86Q49 183 49 342Q49 504 144.5 607.5Q240 711 385 711Q432 711 472.5 699.5Q513 688 542 666V577Q512 603 472 616.5Q432 630 387 630Q280 630 211 549Q142 468 142 342Q142 218 210.5 143Q279 68 383 68Q407 68 423 70Q439 72 457 78V328ZM217 762 316 940H415L513 762H458L365 879L273 762Z" glyph-name="Gcircumflex" horiz-adv-x="615" unicode="&#284;" /><glyph d="M546 328V15Q512 3 469 -4Q426 -11 386 -11Q240 -11 144.5 86Q49 183 49 342Q49 504 144.5 607.5Q240 711 385 711Q432 711 472.5 699.5Q513 688 542 666V577Q512 603 472 616.5Q432 630 387 630Q280 630 211 549Q142 468 142 342Q142 218 210.5 143Q279 68 383 68Q407 68 423 70Q439 72 457 78V328ZM365 785Q337 785 319 803Q301 821 301 848Q301 876 319 894.5Q337 913 365 913Q393 913 411 894.5Q429 876 429 848Q429 821 411 803Q393 785 365 785Z" glyph-name="Gdotaccent" horiz-adv-x="615" unicode="&#288;" /><glyph d="M623 0H532V322H194V0H103V700H194V399H532V700H623Z" glyph-name="H" horiz-adv-x="726" unicode="H" /><glyph d="M705 542V465H632V0H541V259H203V0H112V465H39V542H112V700H203V542H541V700H632V542ZM541 335V465H203V335Z" glyph-name="Hbar" horiz-adv-x="744" unicode="&#294;" /><glyph d="M623 0H532V322H194V0H103V700H194V399H532V700H623ZM215 762 314 940H413L511 762H456L363 879L271 762Z" glyph-name="Hcircumflex" horiz-adv-x="726" unicode="&#292;" /><glyph d="M194 0H103V700H194Z" glyph-name="I" horiz-adv-x="297" unicode="I" /><glyph d="M194 0H103V700H194ZM298 940 179 762H121L185 940Z" glyph-name="Iacute" horiz-adv-x="297" unicode="&#205;" /><glyph d="M194 0H103V700H194ZM148 762Q78 762 38.5 810Q-1 858 -1 940H59Q62 886 84.5 858.5Q107 831 148 831Q189 831 211.5 859Q234 887 237 940H298Q298 858 258 810Q218 762 148 762Z" glyph-name="Ibreve" horiz-adv-x="297" unicode="&#300;" /><glyph d="M194 0H103V700H194ZM0 762 99 940H198L296 762H241L148 879L56 762Z" glyph-name="Icircumflex" horiz-adv-x="297" unicode="&#206;" /><glyph d="M194 0H103V700H194ZM50 782Q25 782 8 799Q-9 816 -9 841Q-9 866 8 883Q25 900 50 900Q76 900 93 883Q110 866 110 841Q110 816 93 799Q76 782 50 782ZM246 782Q221 782 204 799Q187 816 187 841Q187 866 204 883Q221 900 246 900Q271 900 288 883Q305 866 305 841Q305 816 288 799Q271 782 246 782Z" glyph-name="Idieresis" horiz-adv-x="297" unicode="&#207;" /><glyph d="M194 0H103V700H194ZM148 785Q120 785 102 803Q84 821 84 848Q84 876 102 894.5Q120 913 148 913Q176 913 194 894.5Q212 876 212 848Q212 821 194 803Q176 785 148 785Z" glyph-name="Idotaccent" horiz-adv-x="297" unicode="&#304;" /><glyph d="M194 0H103V700H194ZM120 940 185 762H126L8 940Z" glyph-name="Igrave" horiz-adv-x="297" unicode="&#204;" /><glyph d="M194 0H103V700H194ZM303 857V786H-6V857Z" glyph-name="Imacron" horiz-adv-x="297" unicode="&#298;" /><glyph d="M224 -145V-201Q207 -213 183 -219.5Q159 -226 134 -226Q89 -226 59.5 -200.5Q30 -175 30 -136Q30 -103 52 -70Q74 -37 122 0H103V701H194V0Q143 -36 120 -65Q97 -94 97 -123Q97 -143 110 -154.5Q123 -166 147 -166Q165 -166 183 -161Q201 -156 224 -145Z" glyph-name="Iogonek" horiz-adv-x="297" unicode="&#302;" /><glyph d="M194 0H103V700H194ZM218 761Q201 761 183 772Q165 783 134 818Q110 845 98.5 853Q87 861 77 861Q56 861 41.5 835Q27 809 21 762H-36Q-34 833 0 883.5Q34 934 81 934Q98 934 116 923Q134 912 165 877Q189 851 200 843Q211 835 221 835Q242 835 257 860.5Q272 886 278 934H335Q332 861 298.5 811Q265 761 218 761Z" glyph-name="Itilde" horiz-adv-x="297" unicode="&#296;" /><glyph d="M194 700V115Q194 22 173.5 -45Q153 -112 106 -169H1Q56 -107 79.5 -40Q103 27 103 117V700Z" glyph-name="J" horiz-adv-x="297" unicode="J" /><glyph d="M194 700V115Q194 22 173.5 -45Q153 -112 106 -169H1Q56 -107 79.5 -40Q103 27 103 117V700ZM-2 762 97 940H196L294 762H239L146 879L54 762Z" glyph-name="Jcircumflex" horiz-adv-x="297" unicode="&#308;" /><glyph d="M194 0H103V700H194V380L485 700H594L287 372L620 0H508L194 349Z" glyph-name="K" horiz-adv-x="623" unicode="K" /><glyph d="M194 700V77H504V0H103V700Z" glyph-name="L" horiz-adv-x="552" unicode="L" /><glyph d="M194 700V77H504V0H103V700ZM301 940 182 762H124L188 940Z" glyph-name="Lacute" horiz-adv-x="552" unicode="&#313;" /><glyph d="M194 700V77H504V0H103V700ZM375 468H324L354 702H455Z" glyph-name="Lcaron" horiz-adv-x="552" unicode="&#317;" /><glyph d="M194 700V77H504V0H103V700ZM416 299Q388 299 370 317Q352 335 352 363Q352 391 370 409.5Q388 428 416 428Q444 428 462 409.5Q480 391 480 363Q480 335 462 317Q444 299 416 299Z" glyph-name="Ldot" horiz-adv-x="552" unicode="&#319;" /><glyph d="M39 311 112 350V700H203V394L378 489V410L203 315V77H513V0H112V272L39 232Z" glyph-name="Lslash" horiz-adv-x="561" unicode="&#321;" /><glyph d="M574 579 436 124H353L215 579H208L152 0H64L137 700H252L391 240H398L537 700H652L724 0H636L581 579Z" glyph-name="M" horiz-adv-x="789" unicode="M" /><glyph d="M614 0H535L192 551H188V0H103V700H193L525 158H529V700H614Z" glyph-name="N" horiz-adv-x="718" unicode="N" /><glyph glyph-name="NULL" horiz-adv-x="0" /><glyph d="M614 0H535L192 551H188V0H103V700H193L525 158H529V700H614ZM500 940 381 762H323L387 940Z" glyph-name="Nacute" horiz-adv-x="718" unicode="&#323;" /><glyph d="M614 0H535L192 551H188V0H103V700H193L525 158H529V700H614ZM266 940 358 823 451 940H506L408 762H309L210 940Z" glyph-name="Ncaron" horiz-adv-x="718" unicode="&#327;" /><glyph d="M614 0H535L192 551H188V0H103V700H193L525 158H529V700H614ZM427 761Q410 761 392 772Q374 783 343 818Q319 845 307.5 853Q296 861 286 861Q265 861 250.5 835Q236 809 230 762H173Q175 833 209 883.5Q243 934 290 934Q307 934 325 923Q343 912 374 877Q398 851 409 843Q420 835 430 835Q451 835 466 860.5Q481 886 487 934H544Q541 861 507.5 811Q474 761 427 761Z" glyph-name="Ntilde" horiz-adv-x="718" unicode="&#209;" /><glyph d="M332 69Q418 69 469.5 146Q521 223 521 350Q521 477 469.5 554Q418 631 332 631Q245 631 193.5 554Q142 477 142 350Q142 223 193.5 146Q245 69 332 69ZM332 711Q458 711 536 611Q614 511 614 350Q614 189 536 89Q458 -11 332 -11Q206 -11 127.5 89Q49 189 49 350Q49 511 127.5 611Q206 711 332 711Z" glyph-name="O" horiz-adv-x="663" unicode="O" /><glyph d="M480 77V623H385Q269 623 205.5 551.5Q142 480 142 351Q142 221 205.5 149Q269 77 385 77ZM900 0H382Q229 0 139 94.5Q49 189 49 351Q49 513 138.5 606.5Q228 700 382 700H887V623H570V399H855V322H570V77H900Z" glyph-name="OE" horiz-adv-x="974" unicode="&#338;" /><glyph d="M332 69Q418 69 469.5 146Q521 223 521 350Q521 477 469.5 554Q418 631 332 631Q245 631 193.5 554Q142 477 142 350Q142 223 193.5 146Q245 69 332 69ZM332 711Q458 711 536 611Q614 511 614 350Q614 189 536 89Q458 -11 332 -11Q206 -11 127.5 89Q49 189 49 350Q49 511 127.5 611Q206 711 332 711ZM474 940 355 762H297L361 940Z" glyph-name="Oacute" horiz-adv-x="663" unicode="&#211;" /><glyph d="M332 69Q418 69 469.5 146Q521 223 521 350Q521 477 469.5 554Q418 631 332 631Q245 631 193.5 554Q142 477 142 350Q142 223 193.5 146Q245 69 332 69ZM332 711Q458 711 536 611Q614 511 614 350Q614 189 536 89Q458 -11 332 -11Q206 -11 127.5 89Q49 189 49 350Q49 511 127.5 611Q206 711 332 711ZM331 762Q261 762 221.5 810Q182 858 182 940H242Q245 886 267.5 858.5Q290 831 331 831Q372 831 394.5 859Q417 887 420 940H481Q481 858 441 810Q401 762 331 762Z" glyph-name="Obreve" horiz-adv-x="663" unicode="&#334;" /><glyph d="M332 69Q418 69 469.5 146Q521 223 521 350Q521 477 469.5 554Q418 631 332 631Q245 631 193.5 554Q142 477 142 350Q142 223 193.5 146Q245 69 332 69ZM332 711Q458 711 536 611Q614 511 614 350Q614 189 536 89Q458 -11 332 -11Q206 -11 127.5 89Q49 189 49 350Q49 511 127.5 611Q206 711 332 711ZM183 762 282 940H381L479 762H424L331 879L239 762Z" glyph-name="Ocircumflex" horiz-adv-x="663" unicode="&#212;" /><glyph d="M332 69Q418 69 469.5 146Q521 223 521 350Q521 477 469.5 554Q418 631 332 631Q245 631 193.5 554Q142 477 142 350Q142 223 193.5 146Q245 69 332 69ZM332 711Q458 711 536 611Q614 511 614 350Q614 189 536 89Q458 -11 332 -11Q206 -11 127.5 89Q49 189 49 350Q49 511 127.5 611Q206 711 332 711ZM233 782Q208 782 191 799Q174 816 174 841Q174 866 191 883Q208 900 233 900Q259 900 276 883Q293 866 293 841Q293 816 276 799Q259 782 233 782ZM429 782Q404 782 387 799Q370 816 370 841Q370 866 387 883Q404 900 429 900Q454 900 471 883Q488 866 488 841Q488 816 471 799Q454 782 429 782Z" glyph-name="Odieresis" horiz-adv-x="663" unicode="&#214;" /><glyph d="M332 69Q418 69 469.5 146Q521 223 521 350Q521 477 469.5 554Q418 631 332 631Q245 631 193.5 554Q142 477 142 350Q142 223 193.5 146Q245 69 332 69ZM332 711Q458 711 536 611Q614 511 614 350Q614 189 536 89Q458 -11 332 -11Q206 -11 127.5 89Q49 189 49 350Q49 511 127.5 611Q206 711 332 711ZM307 940 372 762H313L195 940Z" glyph-name="Ograve" horiz-adv-x="663" unicode="&#210;" /><glyph d="M332 69Q418 69 469.5 146Q521 223 521 350Q521 477 469.5 554Q418 631 332 631Q245 631 193.5 554Q142 477 142 350Q142 223 193.5 146Q245 69 332 69ZM332 711Q458 711 536 611Q614 511 614 350Q614 189 536 89Q458 -11 332 -11Q206 -11 127.5 89Q49 189 49 350Q49 511 127.5 611Q206 711 332 711ZM261 762H212L276 940H379ZM434 762H386L449 940H552Z" glyph-name="Ohungarumlaut" horiz-adv-x="663" unicode="&#336;" /><glyph d="M332 69Q418 69 469.5 146Q521 223 521 350Q521 477 469.5 554Q418 631 332 631Q245 631 193.5 554Q142 477 142 350Q142 223 193.5 146Q245 69 332 69ZM332 711Q458 711 536 611Q614 511 614 350Q614 189 536 89Q458 -11 332 -11Q206 -11 127.5 89Q49 189 49 350Q49 511 127.5 611Q206 711 332 711ZM486 857V786H177V857Z" glyph-name="Omacron" horiz-adv-x="663" unicode="&#332;" /><glyph d="M125 -46H55L133 82Q130 85 127 89Q49 189 49 350Q49 511 127.5 611Q206 711 332 711Q420 711 485 661L537 747H609L530 618Q533 614 536 611Q614 511 614 350Q614 189 536 89Q458 -11 332 -11Q243 -11 177 39ZM332 67Q419 67 470.5 144Q522 221 522 350Q522 464 481 538L221 110Q266 67 332 67ZM332 633Q245 633 193 555.5Q141 478 141 350Q141 236 182 162L442 590Q397 633 332 633Z" glyph-name="Oslash" horiz-adv-x="663" unicode="&#216;" /><glyph d="M125 -46H55L133 82Q130 85 127 89Q49 189 49 350Q49 511 127.5 611Q206 711 332 711Q420 711 485 661L537 747H609L530 618Q533 614 536 611Q614 511 614 350Q614 189 536 89Q458 -11 332 -11Q243 -11 177 39ZM332 67Q419 67 470.5 144Q522 221 522 350Q522 464 481 538L221 110Q266 67 332 67ZM332 633Q245 633 193 555.5Q141 478 141 350Q141 236 182 162L442 590Q397 633 332 633ZM475 940 356 762H298L362 940Z" glyph-name="Oslashacute" horiz-adv-x="663" unicode="&#510;" /><glyph d="M332 69Q418 69 469.5 146Q521 223 521 350Q521 477 469.5 554Q418 631 332 631Q245 631 193.5 554Q142 477 142 350Q142 223 193.5 146Q245 69 332 69ZM332 711Q458 711 536 611Q614 511 614 350Q614 189 536 89Q458 -11 332 -11Q206 -11 127.5 89Q49 189 49 350Q49 511 127.5 611Q206 711 332 711ZM409 761Q392 761 374 772Q356 783 325 818Q301 845 289.5 853Q278 861 268 861Q247 861 232.5 835Q218 809 212 762H155Q157 833 191 883.5Q225 934 272 934Q289 934 307 923Q325 912 356 877Q380 851 391 843Q402 835 412 835Q433 835 448 860.5Q463 886 469 934H526Q523 861 489.5 811Q456 761 409 761Z" glyph-name="Otilde" horiz-adv-x="663" unicode="&#213;" /><glyph d="M570 488Q570 392 503.5 334.5Q437 277 328 277H193V0H103V700H328Q438 700 504 642.5Q570 585 570 488ZM477 488Q477 551 436.5 587Q396 623 325 623H193V355H325Q396 355 436.5 390.5Q477 426 477 488Z" glyph-name="P" horiz-adv-x="605" unicode="P" /><glyph d="M332 711Q458 711 536 611Q614 511 614 350Q614 189 536 89Q470 5 370 -8Q381 -51 406 -76Q443 -112 509 -112Q528 -112 550 -108.5Q572 -105 586 -100V-169Q571 -176 548 -180.5Q525 -185 500 -185Q404 -185 346 -130Q298 -85 282 -7Q190 9 127 89Q49 189 49 350Q49 511 127.5 611Q206 711 332 711ZM332 69Q418 69 469.5 146Q521 223 521 350Q521 477 469.5 554Q418 631 332 631Q245 631 193.5 554Q142 477 142 350Q142 223 193.5 146Q245 69 332 69Z" glyph-name="Q" horiz-adv-x="663" unicode="Q" /><glyph d="M406 308 622 0H515L319 286H193V0H103V700H292Q414 700 481 646.5Q548 593 548 495Q548 431 510 382Q472 333 406 308ZM293 623H193V363H346Q398 377 426.5 411Q455 445 455 495Q455 555 412 589Q369 623 293 623Z" glyph-name="R" horiz-adv-x="640" unicode="R" /><glyph d="M406 308 622 0H515L319 286H193V0H103V700H292Q414 700 481 646.5Q548 593 548 495Q548 431 510 382Q472 333 406 308ZM293 623H193V363H346Q398 377 426.5 411Q455 445 455 495Q455 555 412 589Q369 623 293 623ZM455 940 336 762H278L342 940Z" glyph-name="Racute" horiz-adv-x="640" unicode="&#340;" /><glyph d="M406 308 622 0H515L319 286H193V0H103V700H292Q414 700 481 646.5Q548 593 548 495Q548 431 510 382Q472 333 406 308ZM293 623H193V363H346Q398 377 426.5 411Q455 445 455 495Q455 555 412 589Q369 623 293 623ZM220 940 312 823 405 940H460L362 762H263L164 940Z" glyph-name="Rcaron" horiz-adv-x="640" unicode="&#344;" /><glyph d="M245 -11Q189 -11 129 6Q69 23 37 50V141Q80 106 135.5 86.5Q191 67 245 67Q323 67 366.5 99.5Q410 132 410 189Q410 228 381.5 257Q353 286 257 326Q201 349 174.5 363Q148 377 130 392Q98 417 83 447.5Q68 478 68 516Q68 601 133.5 656Q199 711 296 711Q344 711 386.5 699Q429 687 467 663V574Q427 604 384.5 619Q342 634 299 634Q235 634 196.5 603Q158 572 158 521Q158 488 184 463Q210 438 299 402Q359 377 387.5 361.5Q416 346 436 329Q469 302 485 268.5Q501 235 501 193Q501 103 430 46Q359 -11 245 -11Z" glyph-name="S" horiz-adv-x="550" unicode="S" /><glyph d="M245 -11Q189 -11 129 6Q69 23 37 50V141Q80 106 135.5 86.5Q191 67 245 67Q323 67 366.5 99.5Q410 132 410 189Q410 228 381.5 257Q353 286 257 326Q201 349 174.5 363Q148 377 130 392Q98 417 83 447.5Q68 478 68 516Q68 601 133.5 656Q199 711 296 711Q344 711 386.5 699Q429 687 467 663V574Q427 604 384.5 619Q342 634 299 634Q235 634 196.5 603Q158 572 158 521Q158 488 184 463Q210 438 299 402Q359 377 387.5 361.5Q416 346 436 329Q469 302 485 268.5Q501 235 501 193Q501 103 430 46Q359 -11 245 -11ZM429 940 310 762H252L316 940Z" glyph-name="Sacute" horiz-adv-x="550" unicode="&#346;" /><glyph d="M245 -11Q189 -11 129 6Q69 23 37 50V141Q80 106 135.5 86.5Q191 67 245 67Q323 67 366.5 99.5Q410 132 410 189Q410 228 381.5 257Q353 286 257 326Q201 349 174.5 363Q148 377 130 392Q98 417 83 447.5Q68 478 68 516Q68 601 133.5 656Q199 711 296 711Q344 711 386.5 699Q429 687 467 663V574Q427 604 384.5 619Q342 634 299 634Q235 634 196.5 603Q158 572 158 521Q158 488 184 463Q210 438 299 402Q359 377 387.5 361.5Q416 346 436 329Q469 302 485 268.5Q501 235 501 193Q501 103 430 46Q359 -11 245 -11ZM191 940 283 823 376 940H431L333 762H234L135 940Z" glyph-name="Scaron" horiz-adv-x="550" unicode="&#352;" /><glyph d="M245 -11Q189 -11 129 6Q69 23 37 50V141Q80 106 135.5 86.5Q191 67 245 67Q323 67 366.5 99.5Q410 132 410 189Q410 228 381.5 257Q353 286 257 326Q201 349 174.5 363Q148 377 130 392Q98 417 83 447.5Q68 478 68 516Q68 601 133.5 656Q199 711 296 711Q344 711 386.5 699Q429 687 467 663V574Q427 604 384.5 619Q342 634 299 634Q235 634 196.5 603Q158 572 158 521Q158 488 184 463Q210 438 299 402Q359 377 387.5 361.5Q416 346 436 329Q469 302 485 268.5Q501 235 501 193Q501 103 430 46Q359 -11 245 -11ZM135 762 234 940H333L431 762H376L283 879L191 762Z" glyph-name="Scircumflex" horiz-adv-x="550" unicode="&#348;" /><glyph d="M253 623H33V700H565V623H344V0H253Z" glyph-name="T" horiz-adv-x="598" unicode="T" /><glyph d="M253 623H33V700H565V623H344V399H454V322H344V0H253V322H143V399H253Z" glyph-name="Tbar" horiz-adv-x="598" unicode="&#358;" /><glyph d="M253 623H33V700H565V623H344V0H253ZM207 940 299 823 392 940H447L349 762H250L151 940Z" glyph-name="Tcaron" horiz-adv-x="598" unicode="&#356;" /><glyph d="M390 -129Q390 -172 354.5 -199Q319 -226 265 -226Q233 -226 208 -219.5Q183 -213 165 -201V-143Q190 -158 213 -164.5Q236 -171 262 -171Q292 -171 309.5 -159.5Q327 -148 327 -129Q327 -109 303 -99Q279 -89 231 -89L267 0H253V623H33V700H565V623H344V0H310L292 -48Q340 -54 365 -75Q390 -96 390 -129Z" glyph-name="Tcommaaccent" horiz-adv-x="598" unicode="&#354;" /><glyph d="M193 155V0H103V700H193V579H328Q437 579 503.5 521.5Q570 464 570 368Q570 271 503.5 213Q437 155 328 155ZM477 368Q477 430 436.5 466Q396 502 325 502H193V233H325Q396 233 436.5 268.5Q477 304 477 368Z" glyph-name="Thorn" horiz-adv-x="605" unicode="&#222;" /><glyph d="M336 70Q419 70 460.5 121Q502 172 502 275V700H593V268Q593 136 525 62.5Q457 -11 336 -11Q216 -11 147.5 62.5Q79 136 79 268V700H170V275Q170 173 211.5 121.5Q253 70 336 70Z" glyph-name="U" horiz-adv-x="672" unicode="U" /><glyph d="M336 70Q419 70 460.5 121Q502 172 502 275V700H593V268Q593 136 525 62.5Q457 -11 336 -11Q216 -11 147.5 62.5Q79 136 79 268V700H170V275Q170 173 211.5 121.5Q253 70 336 70ZM475 940 356 762H298L362 940Z" glyph-name="Uacute" horiz-adv-x="672" unicode="&#218;" /><glyph d="M336 70Q419 70 460.5 121Q502 172 502 275V700H593V268Q593 136 525 62.5Q457 -11 336 -11Q216 -11 147.5 62.5Q79 136 79 268V700H170V275Q170 173 211.5 121.5Q253 70 336 70ZM336 762Q266 762 226.5 810Q187 858 187 940H247Q250 886 272.5 858.5Q295 831 336 831Q377 831 399.5 859Q422 887 425 940H486Q486 858 446 810Q406 762 336 762Z" glyph-name="Ubreve" horiz-adv-x="672" unicode="&#364;" /><glyph d="M336 70Q419 70 460.5 121Q502 172 502 275V700H593V268Q593 136 525 62.5Q457 -11 336 -11Q216 -11 147.5 62.5Q79 136 79 268V700H170V275Q170 173 211.5 121.5Q253 70 336 70ZM188 762 287 940H386L484 762H429L336 879L244 762Z" glyph-name="Ucircumflex" horiz-adv-x="672" unicode="&#219;" /><glyph d="M336 70Q419 70 460.5 121Q502 172 502 275V700H593V268Q593 136 525 62.5Q457 -11 336 -11Q216 -11 147.5 62.5Q79 136 79 268V700H170V275Q170 173 211.5 121.5Q253 70 336 70ZM238 782Q213 782 196 799Q179 816 179 841Q179 866 196 883Q213 900 238 900Q264 900 281 883Q298 866 298 841Q298 816 281 799Q264 782 238 782ZM434 782Q409 782 392 799Q375 816 375 841Q375 866 392 883Q409 900 434 900Q459 900 476 883Q493 866 493 841Q493 816 476 799Q459 782 434 782Z" glyph-name="Udieresis" horiz-adv-x="672" unicode="&#220;" /><glyph d="M336 70Q419 70 460.5 121Q502 172 502 275V700H593V268Q593 136 525 62.5Q457 -11 336 -11Q216 -11 147.5 62.5Q79 136 79 268V700H170V275Q170 173 211.5 121.5Q253 70 336 70ZM314 940 379 762H320L202 940Z" glyph-name="Ugrave" horiz-adv-x="672" unicode="&#217;" /><glyph d="M336 70Q419 70 460.5 121Q502 172 502 275V700H593V268Q593 136 525 62.5Q457 -11 336 -11Q216 -11 147.5 62.5Q79 136 79 268V700H170V275Q170 173 211.5 121.5Q253 70 336 70ZM269 762H220L284 940H387ZM442 762H394L457 940H560Z" glyph-name="Uhungarumlaut" horiz-adv-x="672" unicode="&#368;" /><glyph d="M336 70Q419 70 460.5 121Q502 172 502 275V700H593V268Q593 136 525 62.5Q457 -11 336 -11Q216 -11 147.5 62.5Q79 136 79 268V700H170V275Q170 173 211.5 121.5Q253 70 336 70ZM491 857V786H182V857Z" glyph-name="Umacron" horiz-adv-x="672" unicode="&#362;" /><glyph d="M415 -220Q370 -220 340.5 -194.5Q311 -169 311 -130Q311 -101 325.5 -70.5Q340 -40 370 -8Q362 -10 353.5 -10.5Q345 -11 336 -11Q216 -11 147.5 62.5Q79 136 79 268V701H170V275Q170 173 211.5 121.5Q253 70 336 70Q419 70 460.5 121Q502 172 502 275V701H593V268Q593 182 565 123Q537 64 477 24Q431 -7 404.5 -44Q378 -81 378 -114Q378 -136 391.5 -148Q405 -160 428 -160Q446 -160 465 -154.5Q484 -149 505 -138V-195Q488 -207 464 -213.5Q440 -220 415 -220Z" glyph-name="Uogonek" horiz-adv-x="672" unicode="&#370;" /><glyph d="M336 70Q419 70 460.5 121Q502 172 502 275V700H593V268Q593 136 525 62.5Q457 -11 336 -11Q216 -11 147.5 62.5Q79 136 79 268V700H170V275Q170 173 211.5 121.5Q253 70 336 70ZM335 939Q305 939 284.5 918Q264 897 264 867Q264 837 284.5 816.5Q305 796 335 796Q366 796 386.5 816.5Q407 837 407 867Q407 897 386 918Q365 939 335 939ZM335 739Q284 739 245.5 777.5Q207 816 207 867Q207 918 245.5 956.5Q284 995 335 995Q387 995 425.5 957Q464 919 464 867Q464 816 425.5 777.5Q387 739 335 739Z" glyph-name="Uring" horiz-adv-x="672" unicode="&#366;" /><glyph d="M336 70Q419 70 460.5 121Q502 172 502 275V700H593V268Q593 136 525 62.5Q457 -11 336 -11Q216 -11 147.5 62.5Q79 136 79 268V700H170V275Q170 173 211.5 121.5Q253 70 336 70ZM408 761Q391 761 373 772Q355 783 324 818Q300 845 288.5 853Q277 861 267 861Q246 861 231.5 835Q217 809 211 762H154Q156 833 190 883.5Q224 934 271 934Q288 934 306 923Q324 912 355 877Q379 851 390 843Q401 835 411 835Q432 835 447 860.5Q462 886 468 934H525Q522 861 488.5 811Q455 761 408 761Z" glyph-name="Utilde" horiz-adv-x="672" unicode="&#360;" /><glyph d="M22 700H117L313 118H317L516 700H608L360 0H270Z" glyph-name="V" horiz-adv-x="630" unicode="V" /><glyph d="M245 150 377 700H449L581 150H585L710 700H798L630 0H546L414 544H409L276 0H194L25 700H116L241 150Z" glyph-name="W" horiz-adv-x="823" unicode="W" /><glyph d="M245 150 377 700H449L581 150H585L710 700H798L630 0H546L414 544H409L276 0H194L25 700H116L241 150ZM566 940 447 762H389L453 940Z" glyph-name="Wacute" horiz-adv-x="823" unicode="&#7810;" /><glyph d="M245 150 377 700H449L581 150H585L710 700H798L630 0H546L414 544H409L276 0H194L25 700H116L241 150ZM264 762 363 940H462L560 762H505L412 879L320 762Z" glyph-name="Wcircumflex" horiz-adv-x="823" unicode="&#372;" /><glyph d="M245 150 377 700H449L581 150H585L710 700H798L630 0H546L414 544H409L276 0H194L25 700H116L241 150ZM313 782Q288 782 271 799Q254 816 254 841Q254 866 271 883Q288 900 313 900Q339 900 356 883Q373 866 373 841Q373 816 356 799Q339 782 313 782ZM509 782Q484 782 467 799Q450 816 450 841Q450 866 467 883Q484 900 509 900Q534 900 551 883Q568 866 568 841Q568 816 551 799Q534 782 509 782Z" glyph-name="Wdieresis" horiz-adv-x="823" unicode="&#7812;" /><glyph d="M245 150 377 700H449L581 150H585L710 700H798L630 0H546L414 544H409L276 0H194L25 700H116L241 150ZM370 940 435 762H376L258 940Z" glyph-name="Wgrave" horiz-adv-x="823" unicode="&#7808;" /><glyph d="M620 0H519L319 308L117 0H22L269 371L53 700H153L322 440L493 700H589L373 376Z" glyph-name="X" horiz-adv-x="642" unicode="X" /><glyph d="M352 296V0H261V296L22 700H121L310 377L497 700H591Z" glyph-name="Y" horiz-adv-x="612" unicode="Y" /><glyph d="M352 296V0H261V296L22 700H121L310 377L497 700H591ZM444 940 325 762H267L331 940Z" glyph-name="Yacute" horiz-adv-x="612" unicode="&#221;" /><glyph d="M352 296V0H261V296L22 700H121L310 377L497 700H591ZM158 762 257 940H356L454 762H399L306 879L214 762Z" glyph-name="Ycircumflex" horiz-adv-x="612" unicode="&#374;" /><glyph d="M352 296V0H261V296L22 700H121L310 377L497 700H591ZM208 782Q183 782 166 799Q149 816 149 841Q149 866 166 883Q183 900 208 900Q234 900 251 883Q268 866 268 841Q268 816 251 799Q234 782 208 782ZM404 782Q379 782 362 799Q345 816 345 841Q345 866 362 883Q379 900 404 900Q429 900 446 883Q463 866 463 841Q463 816 446 799Q429 782 404 782Z" glyph-name="Ydieresis" horiz-adv-x="612" unicode="&#376;" /><glyph d="M352 296V0H261V296L22 700H121L310 377L497 700H591ZM280 940 345 762H286L168 940Z" glyph-name="Ygrave" horiz-adv-x="612" unicode="&#7922;" /><glyph d="M166 77H546V0H55V58L418 623H61V700H529V638Z" glyph-name="Z" horiz-adv-x="590" unicode="Z" /><glyph d="M166 77H546V0H55V58L418 623H61V700H529V638ZM443 940 324 762H266L330 940Z" glyph-name="Zacute" horiz-adv-x="590" unicode="&#377;" /><glyph d="M166 77H546V0H55V58L418 623H61V700H529V638ZM206 940 298 823 391 940H446L348 762H249L150 940Z" glyph-name="Zcaron" horiz-adv-x="590" unicode="&#381;" /><glyph d="M166 77H546V0H55V58L418 623H61V700H529V638ZM299 785Q271 785 253 803Q235 821 235 848Q235 876 253 894.5Q271 913 299 913Q327 913 345 894.5Q363 876 363 848Q363 821 345 803Q327 785 299 785Z" glyph-name="Zdotaccent" horiz-adv-x="590" unicode="&#379;" /><glyph d="M138 136Q138 99 160.5 78Q183 57 221 57Q254 57 284 68Q314 79 344 103V248Q243 247 190.5 218.5Q138 190 138 136ZM443 0H359L347 52Q307 19 270 4Q233 -11 194 -11Q132 -11 92 28.5Q52 68 52 131Q52 213 128.5 259.5Q205 306 344 307V340Q344 394 318.5 420Q293 446 241 446Q204 446 163 433.5Q122 421 79 397V472Q109 494 157.5 508.5Q206 523 248 523Q337 523 384.5 476.5Q432 430 432 345V116Q432 86 434.5 60Q437 34 443 0Z" glyph-name="a" horiz-adv-x="519" unicode="a" /><glyph d="M138 136Q138 99 160.5 78Q183 57 221 57Q254 57 284 68Q314 79 344 103V248Q243 247 190.5 218.5Q138 190 138 136ZM443 0H359L347 52Q307 19 270 4Q233 -11 194 -11Q132 -11 92 28.5Q52 68 52 131Q52 213 128.5 259.5Q205 306 344 307V340Q344 394 318.5 420Q293 446 241 446Q204 446 163 433.5Q122 421 79 397V472Q109 494 157.5 508.5Q206 523 248 523Q337 523 384.5 476.5Q432 430 432 345V116Q432 86 434.5 60Q437 34 443 0ZM399 773 277 583H223L284 773Z" glyph-name="aacute" horiz-adv-x="519" unicode="&#225;" /><glyph d="M138 136Q138 99 160.5 78Q183 57 221 57Q254 57 284 68Q314 79 344 103V248Q243 247 190.5 218.5Q138 190 138 136ZM443 0H359L347 52Q307 19 270 4Q233 -11 194 -11Q132 -11 92 28.5Q52 68 52 131Q52 213 128.5 259.5Q205 306 344 307V340Q344 394 318.5 420Q293 446 241 446Q204 446 163 433.5Q122 421 79 397V472Q109 494 157.5 508.5Q206 523 248 523Q337 523 384.5 476.5Q432 430 432 345V116Q432 86 434.5 60Q437 34 443 0ZM254 583Q186 583 146.5 635Q107 687 107 773H168Q171 714 192.5 683.5Q214 653 254 653Q294 653 316 683.5Q338 714 341 773H402Q402 687 362 635Q322 583 254 583Z" glyph-name="abreve" horiz-adv-x="519" unicode="&#259;" /><glyph d="M138 136Q138 99 160.5 78Q183 57 221 57Q254 57 284 68Q314 79 344 103V248Q243 247 190.5 218.5Q138 190 138 136ZM443 0H359L347 52Q307 19 270 4Q233 -11 194 -11Q132 -11 92 28.5Q52 68 52 131Q52 213 128.5 259.5Q205 306 344 307V340Q344 394 318.5 420Q293 446 241 446Q204 446 163 433.5Q122 421 79 397V472Q109 494 157.5 508.5Q206 523 248 523Q337 523 384.5 476.5Q432 430 432 345V116Q432 86 434.5 60Q437 34 443 0ZM101 583 205 773H302L406 583H348L253 712L160 583Z" glyph-name="acircumflex" horiz-adv-x="519" unicode="&#226;" /><glyph d="M360 773 238 583H184L245 773Z" glyph-name="acute" horiz-adv-x="547" unicode="&#180;" /><glyph d="M362 940 243 762H185L249 940Z" glyph-name="acute.cap" horiz-adv-x="547" /><glyph d="M138 136Q138 99 160.5 78Q183 57 221 57Q254 57 284 68Q314 79 344 103V248Q243 247 190.5 218.5Q138 190 138 136ZM443 0H359L347 52Q307 19 270 4Q233 -11 194 -11Q132 -11 92 28.5Q52 68 52 131Q52 213 128.5 259.5Q205 306 344 307V340Q344 394 318.5 420Q293 446 241 446Q204 446 163 433.5Q122 421 79 397V472Q109 494 157.5 508.5Q206 523 248 523Q337 523 384.5 476.5Q432 430 432 345V116Q432 86 434.5 60Q437 34 443 0ZM159 613Q134 613 117 630Q100 647 100 672Q100 697 117 714.5Q134 732 159 732Q184 732 201 714.5Q218 697 218 672Q218 647 201 630Q184 613 159 613ZM348 613Q323 613 306 630Q289 647 289 672Q289 697 306 714.5Q323 732 348 732Q373 732 390 714.5Q407 697 407 672Q407 647 390 630Q373 613 348 613Z" glyph-name="adieresis" horiz-adv-x="519" unicode="&#228;" /><glyph d="M247 523Q330 523 371 478Q390 457 401 427Q428 469 469 494Q515 523 568 523Q669 523 718.5 448Q768 373 756 242H424Q429 167 473 119Q522 65 602 65Q644 65 676 73.5Q708 82 744 101V23Q711 6 674 -2.5Q637 -11 595 -11Q483 -11 413 65Q403 76 394 88Q358 45 310 19Q257 -11 203 -11Q136 -11 94 29Q52 69 52 133Q52 215 128 259Q203 304 345 304V340Q345 393 319 419.5Q293 446 241 446Q204 446 163 433.5Q122 421 79 397V472Q109 494 158 508.5Q207 523 247 523ZM218 58Q264 58 304 85Q336 106 364 143Q347 187 344 242Q240 241 189 216Q138 191 138 138Q138 102 160 80Q182 58 218 58ZM672 304Q677 370 648.5 410Q620 450 566 450Q502 450 463 398Q434 360 427 304Z" glyph-name="ae" horiz-adv-x="807" unicode="&#230;" /><glyph d="M247 523Q330 523 371 478Q390 457 401 427Q428 469 469 494Q515 523 568 523Q669 523 718.5 448Q768 373 756 242H424Q429 167 473 119Q522 65 602 65Q644 65 676 73.5Q708 82 744 101V23Q711 6 674 -2.5Q637 -11 595 -11Q483 -11 413 65Q403 76 394 88Q358 45 310 19Q257 -11 203 -11Q136 -11 94 29Q52 69 52 133Q52 215 128 259Q203 304 345 304V340Q345 393 319 419.5Q293 446 241 446Q204 446 163 433.5Q122 421 79 397V472Q109 494 158 508.5Q207 523 247 523ZM218 58Q264 58 304 85Q336 106 364 143Q347 187 344 242Q240 241 189 216Q138 191 138 138Q138 102 160 80Q182 58 218 58ZM672 304Q677 370 648.5 410Q620 450 566 450Q502 450 463 398Q434 360 427 304ZM548 773 426 583H372L433 773Z" glyph-name="aeacute" horiz-adv-x="807" unicode="&#509;" /><glyph d="M138 136Q138 99 160.5 78Q183 57 221 57Q254 57 284 68Q314 79 344 103V248Q243 247 190.5 218.5Q138 190 138 136ZM443 0H359L347 52Q307 19 270 4Q233 -11 194 -11Q132 -11 92 28.5Q52 68 52 131Q52 213 128.5 259.5Q205 306 344 307V340Q344 394 318.5 420Q293 446 241 446Q204 446 163 433.5Q122 421 79 397V472Q109 494 157.5 508.5Q206 523 248 523Q337 523 384.5 476.5Q432 430 432 345V116Q432 86 434.5 60Q437 34 443 0ZM249 773 309 583H256L134 773Z" glyph-name="agrave" horiz-adv-x="519" unicode="&#224;" /><glyph d="M138 136Q138 99 160.5 78Q183 57 221 57Q254 57 284 68Q314 79 344 103V248Q243 247 190.5 218.5Q138 190 138 136ZM443 0H359L347 52Q307 19 270 4Q233 -11 194 -11Q132 -11 92 28.5Q52 68 52 131Q52 213 128.5 259.5Q205 306 344 307V340Q344 394 318.5 420Q293 446 241 446Q204 446 163 433.5Q122 421 79 397V472Q109 494 157.5 508.5Q206 523 248 523Q337 523 384.5 476.5Q432 430 432 345V116Q432 86 434.5 60Q437 34 443 0ZM397 706V635H111V706Z" glyph-name="amacron" horiz-adv-x="519" unicode="&#257;" /><glyph d="M338 636Q287 636 255 608Q223 580 223 535Q223 508 235.5 483.5Q248 459 299 407L489 210Q528 288 543 399H624Q608 257 543 154L693 0H583L495 89Q403 -11 277 -11Q182 -11 120 46.5Q58 104 58 189Q58 259 102 314Q137 358 200 391Q169 426 156 451Q137 489 137 532Q137 611 192.5 661Q248 711 336 711Q381 711 421.5 699Q462 687 497 664V578Q459 607 420 621.5Q381 636 338 636ZM174 288Q144 250 144 197Q144 141 182.5 102Q221 63 278 63Q376 63 444 141L245 343Q198 318 174 288Z" glyph-name="ampersand" horiz-adv-x="712" unicode="&amp;" /><glyph d="M268 -137Q268 -94 301 -53Q322 -26 359 1L347 52Q307 19 270 4Q233 -11 194 -11Q132 -11 92 28.5Q52 68 52 131Q52 213 128.5 259.5Q205 306 344 307V340Q344 394 318.5 420Q293 446 241 446Q204 446 163 433.5Q122 421 79 397V472Q109 494 157.5 508.5Q206 523 248 523Q337 523 384.5 476.5Q432 430 432 345V116Q432 86 434.5 60Q437 34 443 0H428Q379 -35 357 -64.5Q335 -94 335 -124Q335 -144 348.5 -155.5Q362 -167 385 -167Q403 -167 422 -162Q441 -157 463 -146V-202Q446 -214 422 -220.5Q398 -227 372 -227Q327 -227 297.5 -201.5Q268 -176 268 -137ZM138 136Q138 99 160.5 78Q183 57 221 57Q254 57 284 68Q314 79 344 103V248Q243 247 190.5 218.5Q138 190 138 136Z" glyph-name="aogonek" horiz-adv-x="519" unicode="&#261;" /><glyph d="M138 136Q138 99 160.5 78Q183 57 221 57Q254 57 284 68Q314 79 344 103V248Q243 247 190.5 218.5Q138 190 138 136ZM443 0H359L347 52Q307 19 270 4Q233 -11 194 -11Q132 -11 92 28.5Q52 68 52 131Q52 213 128.5 259.5Q205 306 344 307V340Q344 394 318.5 420Q293 446 241 446Q204 446 163 433.5Q122 421 79 397V472Q109 494 157.5 508.5Q206 523 248 523Q337 523 384.5 476.5Q432 430 432 345V116Q432 86 434.5 60Q437 34 443 0ZM254 645Q279 645 297 662.5Q315 680 315 705Q315 730 297 747.5Q279 765 254 765Q229 765 211 747.5Q193 730 193 705Q193 680 211 662.5Q229 645 254 645ZM254 817Q300 817 333 784Q366 751 366 705Q366 659 333 626.5Q300 594 254 594Q208 594 175 626.5Q142 659 142 705Q142 751 175 784Q208 817 254 817Z" glyph-name="aring" horiz-adv-x="519" unicode="&#229;" /><glyph d="M78 419 254 701H335L510 419H428L294 613L160 419Z" glyph-name="asciicircum" horiz-adv-x="589" unicode="^" /><glyph d="M368 220Q354 220 336 229Q318 238 284 267Q254 291 240.5 298.5Q227 306 217 306Q195 306 180 284.5Q165 263 155 217H92Q102 296 136.5 343.5Q171 391 219 391Q234 391 251.5 382Q269 373 304 344Q334 319 348 311.5Q362 304 372 304Q393 304 407.5 324.5Q422 345 434 393H496Q486 313 451.5 266.5Q417 220 368 220Z" glyph-name="asciitilde" horiz-adv-x="589" unicode="~" /><glyph d="M211 720V762H288V719L272 595L384 649L424 663L449 589L409 576L286 552L371 463L396 429L334 383L309 417L250 524L190 417L166 383L102 429L128 463L213 552L91 576L50 589L75 663L115 649L227 596Z" glyph-name="asterisk" horiz-adv-x="499" unicode="*" /><glyph d="M409 148Q409 119 429 100.5Q449 82 481 82Q508 82 534.5 92Q561 102 589 123V238Q497 238 453 216Q409 194 409 148ZM671 326V104Q680 93 693.5 87.5Q707 82 726 82Q787 82 831.5 146.5Q876 211 876 310Q876 455 777 550Q678 645 531 645Q361 645 247.5 527.5Q134 410 134 231Q134 148 164.5 76Q195 4 252 -49Q307 -101 381 -129Q455 -157 537 -157Q630 -157 716 -129Q802 -101 863 -51V-127Q802 -174 717 -200Q632 -226 538 -226Q441 -226 353.5 -193.5Q266 -161 200 -100Q131 -37 95 48Q59 133 59 231Q59 329 93.5 417Q128 505 193 572Q259 640 346 676Q433 712 531 712Q615 712 691.5 683Q768 654 826 601Q886 545 918 471Q950 397 950 312Q950 186 881 102.5Q812 19 716 19Q681 19 649.5 34Q618 49 599 74Q562 46 527 32.5Q492 19 457 19Q402 19 364.5 54Q327 89 327 142Q327 217 393.5 255.5Q460 294 589 294V318Q589 363 565.5 386.5Q542 410 497 410Q462 410 429.5 400.5Q397 391 358 369V438Q387 458 426.5 470.5Q466 483 503 483Q582 483 626.5 441Q671 399 671 326Z" glyph-name="at" horiz-adv-x="1009" unicode="@" /><glyph d="M138 136Q138 99 160.5 78Q183 57 221 57Q254 57 284 68Q314 79 344 103V248Q243 247 190.5 218.5Q138 190 138 136ZM443 0H359L347 52Q307 19 270 4Q233 -11 194 -11Q132 -11 92 28.5Q52 68 52 131Q52 213 128.5 259.5Q205 306 344 307V340Q344 394 318.5 420Q293 446 241 446Q204 446 163 433.5Q122 421 79 397V472Q109 494 157.5 508.5Q206 523 248 523Q337 523 384.5 476.5Q432 430 432 345V116Q432 86 434.5 60Q437 34 443 0ZM323 596Q306 596 288 607.5Q270 619 240 653Q217 680 206 687.5Q195 695 186 695Q165 695 150 669.5Q135 644 129 596H74Q76 667 109.5 717.5Q143 768 190 768Q207 768 224.5 757Q242 746 273 711Q295 685 306 677Q317 669 327 669Q348 669 363 694.5Q378 720 384 768H439Q437 696 403.5 646Q370 596 323 596Z" glyph-name="atilde" horiz-adv-x="519" unicode="&#227;" /><glyph d="M93 762H181V457Q210 487 249.5 505Q289 523 328 523Q422 523 477 454.5Q532 386 532 269Q532 146 457 67.5Q382 -11 267 -11Q217 -11 174 -0.5Q131 10 93 32ZM306 449Q272 449 238.5 435.5Q205 422 181 399V77Q198 68 220 63Q242 58 267 58Q344 58 393.5 116Q443 174 443 265Q443 351 406 400Q369 449 306 449Z" glyph-name="b" horiz-adv-x="581" unicode="b" /><glyph d="M18 762H103L386 -124H303Z" glyph-name="backslash" horiz-adv-x="404" unicode="\" /><glyph d="M174 762V-124H93V762Z" glyph-name="bar" horiz-adv-x="284" unicode="|" /><glyph d="M130 282H54V355H130Q169 355 183.5 370Q198 385 198 421L171 626Q171 687 221.5 724.5Q272 762 348 762Q376 762 401 757Q426 752 447 743V679Q433 685 407.5 689Q382 693 361 693Q312 693 284 672.5Q256 652 256 616L283 419Q283 379 257.5 352.5Q232 326 190 319Q232 312 257.5 285.5Q283 259 283 218L256 22Q256 -15 284 -35.5Q312 -56 361 -56Q381 -56 407 -51.5Q433 -47 447 -41V-106Q425 -115 400 -119.5Q375 -124 348 -124Q272 -124 221.5 -86.5Q171 -49 171 12L198 217Q198 252 184 267Q170 282 130 282Z" glyph-name="braceleft" horiz-adv-x="502" unicode="{" /><glyph d="M372 282Q332 282 318 267Q304 252 304 217L331 12Q331 -49 280.5 -86.5Q230 -124 154 -124Q127 -124 102 -119.5Q77 -115 55 -106V-41Q69 -47 95 -51.5Q121 -56 141 -56Q190 -56 218 -35.5Q246 -15 246 22L219 218Q219 259 244.5 285.5Q270 312 312 319Q270 326 244.5 352.5Q219 379 219 419L246 616Q246 652 218 672.5Q190 693 141 693Q120 693 94.5 689Q69 685 55 679V743Q76 752 101 757Q126 762 154 762Q230 762 280.5 724.5Q331 687 331 626L304 421Q304 385 318.5 370Q333 355 372 355H448V282H372Z" glyph-name="braceright" horiz-adv-x="502" unicode="}" /><glyph d="M366 693H196V-55H366V-124H109V762H366Z" glyph-name="bracketleft" horiz-adv-x="420" unicode="[" /><glyph d="M54 762H311V-124H54V-55H224V693H54Z" glyph-name="bracketright" horiz-adv-x="420" unicode="]" /><glyph d="M273 583Q205 583 165.5 635Q126 687 126 773H187Q190 714 211.5 683.5Q233 653 273 653Q313 653 335 683.5Q357 714 360 773H421Q421 687 381 635Q341 583 273 583Z" glyph-name="breve" horiz-adv-x="547" unicode="&#728;" /><glyph d="M273 762Q203 762 163.5 810Q124 858 124 940H184Q187 886 209.5 858.5Q232 831 273 831Q314 831 336.5 859Q359 887 362 940H423Q423 858 383 810Q343 762 273 762Z" glyph-name="breve.cap" horiz-adv-x="547" /><glyph d="M399 280Q399 219 355 175Q311 131 250 131Q189 131 145.5 175Q102 219 102 280Q102 341 145.5 384.5Q189 428 250 428Q312 428 355.5 384.5Q399 341 399 280Z" glyph-name="bullet" horiz-adv-x="501" unicode="&#8226;" /><glyph d="M301 -11Q191 -11 120 63.5Q49 138 49 254Q49 371 120.5 447Q192 523 301 523Q332 523 359.5 516Q387 509 406 496V418Q381 432 357 438.5Q333 445 304 445Q230 445 183.5 392Q137 339 137 254Q137 170 183 119Q229 68 304 68Q335 68 358.5 74.5Q382 81 406 95V16Q386 3 358.5 -4Q331 -11 301 -11Z" glyph-name="c" horiz-adv-x="454" unicode="c" /><glyph d="M301 -11Q191 -11 120 63.5Q49 138 49 254Q49 371 120.5 447Q192 523 301 523Q332 523 359.5 516Q387 509 406 496V418Q381 432 357 438.5Q333 445 304 445Q230 445 183.5 392Q137 339 137 254Q137 170 183 119Q229 68 304 68Q335 68 358.5 74.5Q382 81 406 95V16Q386 3 358.5 -4Q331 -11 301 -11ZM417 773 295 583H241L302 773Z" glyph-name="cacute" horiz-adv-x="454" unicode="&#263;" /><glyph d="M180 773 273 644 368 773H426L322 583H225L121 773Z" glyph-name="caron" horiz-adv-x="547" unicode="&#711;" /><glyph d="M209 528H158L188 762H289Z" glyph-name="caron.Slovak" horiz-adv-x="455" /><glyph d="M182 940 274 823 367 940H422L324 762H225L126 940Z" glyph-name="caron.cap" horiz-adv-x="547" /><glyph d="M301 -11Q191 -11 120 63.5Q49 138 49 254Q49 371 120.5 447Q192 523 301 523Q332 523 359.5 516Q387 509 406 496V418Q381 432 357 438.5Q333 445 304 445Q230 445 183.5 392Q137 339 137 254Q137 170 183 119Q229 68 304 68Q335 68 358.5 74.5Q382 81 406 95V16Q386 3 358.5 -4Q331 -11 301 -11ZM190 773 283 644 378 773H436L332 583H235L131 773Z" glyph-name="ccaron" horiz-adv-x="454" unicode="&#269;" /><glyph d="M366 -129Q366 -172 330.5 -199Q295 -226 241 -226Q209 -226 184 -219.5Q159 -213 141 -201V-143Q166 -158 189 -164.5Q212 -171 238 -171Q268 -171 285.5 -159.5Q303 -148 303 -129Q303 -109 279 -99Q255 -89 207 -89L241 -5Q170 10 120 63Q49 138 49 254Q49 371 120.5 447Q192 523 301 523Q332 523 359.5 516Q387 509 406 496V418Q381 432 357 438.5Q333 445 304 445Q230 445 183.5 392Q137 339 137 254Q137 170 183 119Q229 68 304 68Q335 68 358.5 74.5Q382 81 406 95V16Q386 3 358.5 -4Q331 -11 301 -11Q291 -11 282 -10L268 -48Q316 -54 341 -75Q366 -96 366 -129Z" glyph-name="ccedilla" horiz-adv-x="454" unicode="&#231;" /><glyph d="M301 -11Q191 -11 120 63.5Q49 138 49 254Q49 371 120.5 447Q192 523 301 523Q332 523 359.5 516Q387 509 406 496V418Q381 432 357 438.5Q333 445 304 445Q230 445 183.5 392Q137 339 137 254Q137 170 183 119Q229 68 304 68Q335 68 358.5 74.5Q382 81 406 95V16Q386 3 358.5 -4Q331 -11 301 -11ZM122 583 226 773H323L427 583H369L274 712L181 583Z" glyph-name="ccircumflex" horiz-adv-x="454" unicode="&#265;" /><glyph d="M301 -11Q191 -11 120 63.5Q49 138 49 254Q49 371 120.5 447Q192 523 301 523Q332 523 359.5 516Q387 509 406 496V418Q381 432 357 438.5Q333 445 304 445Q230 445 183.5 392Q137 339 137 254Q137 170 183 119Q229 68 304 68Q335 68 358.5 74.5Q382 81 406 95V16Q386 3 358.5 -4Q331 -11 301 -11ZM274 613Q246 613 228 631Q210 649 210 677Q210 705 228 723.5Q246 742 274 742Q302 742 320 723.5Q338 705 338 677Q338 649 320 631Q302 613 274 613Z" glyph-name="cdotaccent" horiz-adv-x="454" unicode="&#267;" /><glyph d="M372 -129Q372 -172 336.5 -199Q301 -226 247 -226Q215 -226 190 -219.5Q165 -213 147 -201V-143Q172 -158 195 -164.5Q218 -171 244 -171Q274 -171 291.5 -159.5Q309 -148 309 -129Q309 -109 285 -99Q261 -89 213 -89L252 7H295L274 -48Q322 -54 347 -75Q372 -96 372 -129Z" glyph-name="cedilla" horiz-adv-x="547" unicode="&#184;" /><glyph d="M361 -88H284V82Q203 95 147 144Q69 212 69 321Q69 429 147 497Q203 546 284 560V734H361V564Q388 563 423 554Q466 543 495 529V451Q459 468 421.5 477Q384 486 350 486Q263 486 210.5 441.5Q158 397 158 321Q158 245 210.5 200.5Q263 156 350 156Q384 156 421.5 165Q459 174 495 191V112Q467 98 423 87Q388 79 361 77Z" glyph-name="cent" horiz-adv-x="589" unicode="&#162;" /><glyph d="M121 583 225 773H322L426 583H368L273 712L180 583Z" glyph-name="circumflex" horiz-adv-x="547" unicode="&#710;" /><glyph d="M126 762 225 940H324L422 762H367L274 879L182 762Z" glyph-name="circumflex.cap" horiz-adv-x="547" /><glyph d="M157 -6Q127 -6 105 16.5Q83 39 83 69Q83 100 105 122.5Q127 145 157 145Q187 145 209 122Q231 99 231 69Q231 39 209 16.5Q187 -6 157 -6ZM157 326Q127 326 105 348.5Q83 371 83 401Q83 432 105 454.5Q127 477 157 477Q187 477 209 454Q231 431 231 401Q231 371 209 348.5Q187 326 157 326Z" glyph-name="colon" horiz-adv-x="312" unicode=":" /><glyph d="M109 129H214Q214 49 181.5 -39Q149 -127 107 -172H44Q73 -124 91 -40.5Q109 43 109 129Z" glyph-name="comma" horiz-adv-x="312" unicode="," /><glyph d="M407 657Q277 657 189 569.5Q101 482 101 351Q101 219 189 131.5Q277 44 407 44Q536 44 624 132Q712 220 712 351Q712 482 624 569.5Q536 657 407 657ZM407 -11Q254 -11 150 92.5Q46 196 46 351Q46 505 150 608.5Q254 712 407 712Q560 712 663.5 609Q767 506 767 351Q767 196 663.5 92.5Q560 -11 407 -11ZM427 488Q374 488 340.5 450.5Q307 413 307 353Q307 294 340.5 257.5Q374 221 427 221Q454 221 475.5 227Q497 233 512 245V176Q496 165 473 159Q450 153 423 153Q341 153 285.5 210Q230 267 230 353Q230 441 285 498.5Q340 556 423 556Q449 556 472 549.5Q495 543 512 532V463Q497 475 475 481.5Q453 488 427 488Z" glyph-name="copyright" horiz-adv-x="813" unicode="&#169;" /><glyph d="M279 63Q312 63 342.5 76Q373 89 400 114V424Q383 437 356 445Q329 453 301 453Q226 453 182 397Q138 341 138 246Q138 161 176 112Q214 63 279 63ZM400 495V762H487V0H400V54Q373 25 335 7Q297 -11 258 -11Q164 -11 106.5 58Q49 127 49 242Q49 367 117 445Q185 523 291 523Q322 523 351.5 515.5Q381 508 400 495Z" glyph-name="d" horiz-adv-x="581" unicode="d" /><glyph d="M161 485 179 579 87 561H46V636H86L179 617L161 712V762H235V711L215 616L314 636H354V561H313L216 579L235 486V319H161Z" glyph-name="dagger" horiz-adv-x="399" unicode="&#8224;" /><glyph d="M161 762H235V712L216 643L314 663H354V588H313L222 606V473L313 492H354V418H314L217 436L235 369V319H161V368L178 436L86 418H46V492H87L174 474V606L87 588H46V663H86L178 644L161 713Z" glyph-name="daggerdbl" horiz-adv-x="399" unicode="&#8225;" /><glyph d="M279 63Q312 63 342.5 76Q373 89 400 114V424Q383 437 356 445Q329 453 301 453Q226 453 182 397Q138 341 138 246Q138 161 176 112Q214 63 279 63ZM400 495V762H487V0H400V54Q373 25 335 7Q297 -11 258 -11Q164 -11 106.5 58Q49 127 49 242Q49 367 117 445Q185 523 291 523Q322 523 351.5 515.5Q381 508 400 495ZM632 528H581L611 762H712Z" glyph-name="dcaron" horiz-adv-x="695" unicode="&#271;" /><glyph d="M400 495V612H258V674H400V762H487V674H560V612H487V0H400V54Q373 25 335 7Q297 -11 258 -11Q164 -11 106.5 58Q49 127 49 242Q49 367 117 445Q185 523 291 523Q322 523 351.5 515.5Q381 508 400 495ZM279 63Q312 63 342.5 76Q373 89 400 114V424Q383 437 356 445Q329 453 301 453Q226 453 182 397Q138 341 138 246Q138 161 176 112Q214 63 279 63Z" glyph-name="dcroat" horiz-adv-x="581" unicode="&#273;" /><glyph d="M203 605Q165 605 137 577.5Q109 550 109 512Q109 472 136.5 443.5Q164 415 203 415Q244 415 272 443Q300 471 300 512Q300 551 271.5 578Q243 605 203 605ZM203 352Q138 352 92 398.5Q46 445 46 512Q46 576 92.5 622.5Q139 669 203 669Q269 669 316 623Q363 577 363 512Q363 445 316.5 398.5Q270 352 203 352Z" glyph-name="degree" horiz-adv-x="408" unicode="&#176;" /><glyph d="M179 613Q154 613 137 630Q120 647 120 672Q120 697 137 714.5Q154 732 179 732Q204 732 221 714.5Q238 697 238 672Q238 647 221 630Q204 613 179 613ZM368 613Q343 613 326 630Q309 647 309 672Q309 697 326 714.5Q343 732 368 732Q393 732 410 714.5Q427 697 427 672Q427 647 410 630Q393 613 368 613Z" glyph-name="dieresis" horiz-adv-x="547" unicode="&#168;" /><glyph d="M175 782Q150 782 133 799Q116 816 116 841Q116 866 133 883Q150 900 175 900Q201 900 218 883Q235 866 235 841Q235 816 218 799Q201 782 175 782ZM371 782Q346 782 329 799Q312 816 312 841Q312 866 329 883Q346 900 371 900Q396 900 413 883Q430 866 430 841Q430 816 413 799Q396 782 371 782Z" glyph-name="dieresis.cap" horiz-adv-x="547" /><glyph d="M288 465Q258 465 237 485.5Q216 506 216 535Q216 565 237 586.5Q258 608 288 608Q317 608 338.5 586.5Q360 565 360 535Q360 507 338.5 486Q317 465 288 465ZM548 294H40V366H548ZM288 51Q258 51 237 71.5Q216 92 216 121Q216 152 236.5 173Q257 194 288 194Q317 194 338.5 172.5Q360 151 360 121Q360 93 338.5 72Q317 51 288 51Z" glyph-name="divide" horiz-adv-x="589" unicode="&#247;" /><glyph d="M333 -123H257V43Q208 45 158 58Q97 74 58 99V190Q105 156 163 137Q221 118 277 118Q345 118 385.5 142Q426 166 426 209Q426 237 399.5 256.5Q373 276 283 299Q226 314 199 324Q172 334 152 345Q117 366 100 393.5Q83 421 83 457Q83 527 147 573Q193 606 257 615V762H333V618Q369 616 403 608Q449 597 490 575V492Q449 519 403 532.5Q357 546 309 546Q249 546 211 522Q173 498 173 459Q173 433 199 415Q225 397 312 375Q371 360 399 350Q427 340 447 328Q484 307 502 279Q520 251 520 214Q520 140 451 91Q401 56 333 46Z" glyph-name="dollar" horiz-adv-x="589" unicode="$" /><glyph d="M273 613Q245 613 227 631Q209 649 209 677Q209 705 227 723.5Q245 742 273 742Q301 742 319 723.5Q337 705 337 677Q337 649 319 631Q301 613 273 613Z" glyph-name="dotaccent" horiz-adv-x="547" unicode="&#729;" /><glyph d="M273 785Q245 785 227 803Q209 821 209 848Q209 876 227 894.5Q245 913 273 913Q301 913 319 894.5Q337 876 337 848Q337 821 319 803Q301 785 273 785Z" glyph-name="dotaccent.cap" horiz-adv-x="547" /><glyph d="M181 0H93V512H181Z" glyph-name="dotlessi" horiz-adv-x="274" unicode="&#305;" /><glyph d="M181 119Q230 65 310 65Q352 65 384 73.5Q416 82 452 101V23Q419 6 382 -2.5Q345 -11 303 -11Q191 -11 120 65Q49 141 49 260Q49 373 112.5 448Q176 523 275 523Q377 523 427 447.5Q477 372 463 242H132Q137 167 181 119ZM275 450Q210 450 171 398Q142 360 135 304H379Q384 370 356 410Q328 450 275 450Z" glyph-name="e" horiz-adv-x="514" unicode="e" /><glyph d="M181 119Q230 65 310 65Q352 65 384 73.5Q416 82 452 101V23Q419 6 382 -2.5Q345 -11 303 -11Q191 -11 120 65Q49 141 49 260Q49 373 112.5 448Q176 523 275 523Q377 523 427 447.5Q477 372 463 242H132Q137 167 181 119ZM275 450Q210 450 171 398Q142 360 135 304H379Q384 370 356 410Q328 450 275 450ZM428 773 306 583H252L313 773Z" glyph-name="eacute" horiz-adv-x="514" unicode="&#233;" /><glyph d="M181 119Q230 65 310 65Q352 65 384 73.5Q416 82 452 101V23Q419 6 382 -2.5Q345 -11 303 -11Q191 -11 120 65Q49 141 49 260Q49 373 112.5 448Q176 523 275 523Q377 523 427 447.5Q477 372 463 242H132Q137 167 181 119ZM275 450Q210 450 171 398Q142 360 135 304H379Q384 370 356 410Q328 450 275 450ZM275 583Q207 583 167.5 635Q128 687 128 773H189Q192 714 213.5 683.5Q235 653 275 653Q315 653 337 683.5Q359 714 362 773H423Q423 687 383 635Q343 583 275 583Z" glyph-name="ebreve" horiz-adv-x="514" unicode="&#277;" /><glyph d="M181 119Q230 65 310 65Q352 65 384 73.5Q416 82 452 101V23Q419 6 382 -2.5Q345 -11 303 -11Q191 -11 120 65Q49 141 49 260Q49 373 112.5 448Q176 523 275 523Q377 523 427 447.5Q477 372 463 242H132Q137 167 181 119ZM275 450Q210 450 171 398Q142 360 135 304H379Q384 370 356 410Q328 450 275 450ZM188 773 281 644 376 773H434L330 583H233L129 773Z" glyph-name="ecaron" horiz-adv-x="514" unicode="&#283;" /><glyph d="M181 119Q230 65 310 65Q352 65 384 73.5Q416 82 452 101V23Q419 6 382 -2.5Q345 -11 303 -11Q191 -11 120 65Q49 141 49 260Q49 373 112.5 448Q176 523 275 523Q377 523 427 447.5Q477 372 463 242H132Q137 167 181 119ZM275 450Q210 450 171 398Q142 360 135 304H379Q384 370 356 410Q328 450 275 450ZM121 583 225 773H322L426 583H368L273 712L180 583Z" glyph-name="ecircumflex" horiz-adv-x="514" unicode="&#234;" /><glyph d="M181 119Q230 65 310 65Q352 65 384 73.5Q416 82 452 101V23Q419 6 382 -2.5Q345 -11 303 -11Q191 -11 120 65Q49 141 49 260Q49 373 112.5 448Q176 523 275 523Q377 523 427 447.5Q477 372 463 242H132Q137 167 181 119ZM275 450Q210 450 171 398Q142 360 135 304H379Q384 370 356 410Q328 450 275 450ZM183 613Q158 613 141 630Q124 647 124 672Q124 697 141 714.5Q158 732 183 732Q208 732 225 714.5Q242 697 242 672Q242 647 225 630Q208 613 183 613ZM372 613Q347 613 330 630Q313 647 313 672Q313 697 330 714.5Q347 732 372 732Q397 732 414 714.5Q431 697 431 672Q431 647 414 630Q397 613 372 613Z" glyph-name="edieresis" horiz-adv-x="514" unicode="&#235;" /><glyph d="M181 119Q230 65 310 65Q352 65 384 73.5Q416 82 452 101V23Q419 6 382 -2.5Q345 -11 303 -11Q191 -11 120 65Q49 141 49 260Q49 373 112.5 448Q176 523 275 523Q377 523 427 447.5Q477 372 463 242H132Q137 167 181 119ZM275 450Q210 450 171 398Q142 360 135 304H379Q384 370 356 410Q328 450 275 450ZM277 613Q249 613 231 631Q213 649 213 677Q213 705 231 723.5Q249 742 277 742Q305 742 323 723.5Q341 705 341 677Q341 649 323 631Q305 613 277 613Z" glyph-name="edotaccent" horiz-adv-x="514" unicode="&#279;" /><glyph d="M181 119Q230 65 310 65Q352 65 384 73.5Q416 82 452 101V23Q419 6 382 -2.5Q345 -11 303 -11Q191 -11 120 65Q49 141 49 260Q49 373 112.5 448Q176 523 275 523Q377 523 427 447.5Q477 372 463 242H132Q137 167 181 119ZM275 450Q210 450 171 398Q142 360 135 304H379Q384 370 356 410Q328 450 275 450ZM260 773 320 583H267L145 773Z" glyph-name="egrave" horiz-adv-x="514" unicode="&#232;" /><glyph d="M466 401Q435 368 387 345Q421 329 440 319Q465 305 483 291Q511 267 525 238Q539 209 539 174Q539 95 467.5 42Q396 -11 293 -11Q188 -11 118.5 41.5Q49 94 49 175Q49 238 99 288Q137 325 191 346Q145 371 119 404Q87 446 87 498Q87 571 147.5 620Q208 669 296 669Q387 669 446.5 622Q506 575 506 501Q506 446 466 401ZM245 322Q200 302 173 273Q137 234 137 181Q137 128 181 93Q225 58 293 58Q361 58 404.5 89.5Q448 121 448 171Q448 208 423.5 233.5Q399 259 325 290ZM421 495Q421 543 387.5 572Q354 601 296 601Q242 601 208 573.5Q174 546 174 502Q174 467 194 444.5Q214 422 266 399L337 367Q373 387 394 415Q421 451 421 495Z" glyph-name="eight" horiz-adv-x="589" unicode="8" /><glyph d="M157 -6Q127 -6 105 16.5Q83 39 83 69Q83 100 105 122.5Q127 145 157 145Q187 145 209 122Q231 99 231 69Q231 39 209 16.5Q187 -6 157 -6ZM397 -6Q367 -6 345 16.5Q323 39 323 69Q323 100 345 122.5Q367 145 397 145Q427 145 449 122Q471 99 471 69Q471 39 449 16.5Q427 -6 397 -6ZM638 -6Q608 -6 586 16.5Q564 39 564 69Q564 100 586 122.5Q608 145 638 145Q668 145 690 122Q712 99 712 69Q712 39 690 16.5Q668 -6 638 -6Z" glyph-name="ellipsis" horiz-adv-x="793" unicode="&#8230;" /><glyph d="M181 119Q230 65 310 65Q352 65 384 73.5Q416 82 452 101V23Q419 6 382 -2.5Q345 -11 303 -11Q191 -11 120 65Q49 141 49 260Q49 373 112.5 448Q176 523 275 523Q377 523 427 447.5Q477 372 463 242H132Q137 167 181 119ZM275 450Q210 450 171 398Q142 360 135 304H379Q384 370 356 410Q328 450 275 450ZM416 706V635H130V706Z" glyph-name="emacron" horiz-adv-x="514" unicode="&#275;" /><glyph d="M950 245H102V314H950Z" glyph-name="emdash" horiz-adv-x="1052" unicode="&#8212;" /><glyph d="M668 245H102V314H668Z" glyph-name="endash" horiz-adv-x="770" unicode="&#8211;" /><glyph d="M397 -215H297Q348 -162 374.5 -103.5Q401 -45 401 14V336Q401 394 378 421Q355 448 307 448Q275 448 245 437Q215 426 181 400V0H93V512H181V457Q217 488 258 505.5Q299 523 339 523Q411 523 450 478Q489 433 489 350V7Q489 -55 466.5 -109Q444 -163 397 -215Z" glyph-name="eng" horiz-adv-x="576" unicode="&#331;" /><glyph d="M275 450Q219 450 181.5 410.5Q144 371 135 304H379Q384 370 356 410Q328 450 275 450ZM454 -145V-201Q437 -213 413 -219.5Q389 -226 364 -226Q319 -226 289.5 -200.5Q260 -175 260 -136Q260 -103 279.5 -72Q299 -41 339 -9Q321 -10 314.5 -10.5Q308 -11 302 -11Q190 -11 119.5 65Q49 141 49 260Q49 373 112.5 448Q176 523 275 523Q377 523 427 447.5Q477 372 463 242H134Q139 162 187.5 113.5Q236 65 310 65Q352 65 384 73.5Q416 82 452 101V23Q391 -13 358.5 -51Q326 -89 326 -123Q326 -143 339.5 -154.5Q353 -166 376 -166Q394 -166 412.5 -161Q431 -156 454 -145Z" glyph-name="eogonek" horiz-adv-x="514" unicode="&#281;" /><glyph d="M548 394H40V466H548ZM548 194H40V266H548Z" glyph-name="equal" horiz-adv-x="589" unicode="=" /><glyph d="M440 757V695L358 655Q395 623 423 586Q515 465 515 289Q515 152 450.5 70.5Q386 -11 279 -11Q179 -11 114 61Q49 133 49 244Q49 352 116 423.5Q183 495 281 495Q334 495 380 463Q397 451 410 437Q390 506 348 558Q322 590 283 619L126 543V604L230 655Q160 697 61 731V740L146 773Q239 740 308 693ZM280 65Q352 65 391.5 123Q431 181 431 289Q431 322 427 353Q401 385 370 403Q333 426 292 426Q223 426 180 375.5Q137 325 137 244Q137 161 175 113Q213 65 280 65Z" glyph-name="eth" horiz-adv-x="564" unicode="&#240;" /><glyph d="M208 701 177 249H122L92 701ZM150 -6Q120 -6 98 16.5Q76 39 76 69Q76 100 98 122.5Q120 145 150 145Q180 145 202 122.5Q224 100 224 69Q224 39 202 16.5Q180 -6 150 -6Z" glyph-name="exclam" horiz-adv-x="299" unicode="!" /><glyph d="M92 0 122 452H177L208 0ZM150 707Q180 707 202 684.5Q224 662 224 632Q224 601 202 578.5Q180 556 150 556Q120 556 98 578.5Q76 601 76 632Q76 662 98 684.5Q120 707 150 707Z" glyph-name="exclamdown" horiz-adv-x="299" unicode="&#161;" /><glyph d="M345 441H203V0H115V441H40V512H115V537Q115 645 169 709Q223 773 313 773Q333 773 349.5 770.5Q366 768 385 761V689Q368 694 354.5 695.5Q341 697 324 697Q263 697 233 657.5Q203 618 203 537V512H345Z" glyph-name="f" horiz-adv-x="358" unicode="f" /><glyph d="M650 523Q744 523 798.5 455Q853 387 853 269Q853 146 778 67.5Q703 -11 588 -11Q539 -11 496 -0.5Q453 10 414 32V691Q398 696 384.5 698Q371 700 353 700Q280 700 241.5 656.5Q203 613 203 530V512H340V441H203V0H115V441H40V512H115V530Q115 640 180.5 706.5Q246 773 355 773Q393 773 431.5 765.5Q470 758 502 745V457Q532 487 571.5 505Q611 523 650 523ZM628 449Q594 449 560.5 435.5Q527 422 502 399V77Q520 68 542.5 63Q565 58 589 58Q666 58 715.5 116Q765 174 765 265Q765 351 728 400Q691 449 628 449Z" glyph-name="f_b" horiz-adv-x="902" /><glyph d="M950 523Q1044 523 1098.5 455Q1153 387 1153 269Q1153 146 1078 67.5Q1003 -11 888 -11Q839 -11 796 -0.5Q753 10 714 32V691Q698 696 684.5 698Q671 700 653 700Q580 700 541.5 656.5Q503 613 503 530V512H640V441H503V0H415V441H203V0H115V441H40V512H115V525Q115 631 168 694Q221 757 309 757Q326 757 340.5 755Q355 753 373 747V676Q358 680 346 681.5Q334 683 319 683Q260 683 231.5 644Q203 605 203 525V512H415V530Q415 640 480.5 706.5Q546 773 655 773Q693 773 731.5 765.5Q770 758 802 745V457Q832 487 871.5 505Q911 523 950 523ZM928 449Q894 449 860.5 435.5Q827 422 802 399V77Q820 68 842.5 63Q865 58 889 58Q966 58 1015.5 116Q1065 174 1065 265Q1065 351 1028 400Q991 449 928 449Z" glyph-name="f_f_b" horiz-adv-x="1202" /><glyph d="M640 441H503V0H415V441H203V0H115V441H40V512H115V525Q115 631 168 694Q221 757 309 757Q326 757 340.5 755Q355 753 373 747V676Q358 680 346 681.5Q334 683 319 683Q260 683 231.5 644Q203 605 203 525V512H415V530Q415 640 480.5 706.5Q546 773 655 773Q693 773 731.5 765.5Q770 758 802 745V457Q838 488 879 505.5Q920 523 960 523Q1032 523 1071 478Q1110 433 1110 350V0H1022V336Q1022 394 999.5 420.5Q977 447 929 447Q897 447 866.5 435.5Q836 424 802 399V0H714V691Q698 696 684.5 698Q671 700 653 700Q580 700 541.5 656.5Q503 613 503 530V512H640Z" glyph-name="f_f_h" horiz-adv-x="1197" /><glyph d="M802 0H714V441H503V0H415V441H203V0H115V441H40V512H115V525Q115 631 168 694Q221 757 309 757Q326 757 340.5 755Q355 753 373 747V676Q358 680 346 681.5Q334 683 319 683Q260 683 231.5 644Q203 605 203 525V512H415V536Q415 644 471.5 708.5Q528 773 622 773Q645 773 662.5 770.5Q680 768 700 761V688Q683 693 667 695Q651 697 631 697Q566 697 534.5 657Q503 617 503 534V512H802ZM853 613Q828 613 811 630Q794 647 794 672Q794 697 811 714.5Q828 732 853 732Q878 732 895 714.5Q912 697 912 672Q912 647 895 630Q878 613 853 613Z" glyph-name="f_f_idieresis" horiz-adv-x="896" /><glyph d="M714 14V441H503V0H415V441H203V0H115V441H40V512H115V525Q115 631 168 694Q221 757 309 757Q326 757 340.5 755Q355 753 373 747V676Q358 680 346 681.5Q334 683 319 683Q260 683 231.5 644Q203 605 203 525V512H415V529Q415 638 478 705.5Q541 773 641 773Q673 773 700.5 766.5Q728 760 749 747V672Q722 685 697.5 691Q673 697 647 697Q578 697 540.5 653.5Q503 610 503 529V512H802V7Q802 -55 780 -109.5Q758 -164 711 -215H611Q661 -162 687.5 -103.5Q714 -45 714 14Z" glyph-name="f_f_j" horiz-adv-x="896" /><glyph d="M1157 0H1047L802 265V0H714V691Q698 696 684.5 698Q671 700 653 700Q580 700 541.5 656.5Q503 613 503 530V512H640V441H503V0H415V441H203V0H115V441H40V512H115V525Q115 631 168 694Q221 757 309 757Q326 757 340.5 755Q355 753 373 747V676Q358 680 346 681.5Q334 683 319 683Q260 683 231.5 644Q203 605 203 525V512H415V530Q415 640 480.5 706.5Q546 773 655 773Q693 773 731.5 765.5Q770 758 802 745V295L1024 512H1133L894 285Z" glyph-name="f_f_k" horiz-adv-x="1162" /><glyph d="M503 441V0H415V441H203V0H115V441H40V512H115V525Q115 631 168 694Q221 757 309 757Q326 757 340.5 755Q355 753 373 747V676Q358 680 346 681.5Q334 683 319 683Q260 683 231.5 644Q203 605 203 525V512H415V540Q415 648 466.5 710.5Q518 773 606 773Q622 773 632.5 771.5Q643 770 653 767V694Q645 696 637.5 697Q630 698 616 698Q558 698 530.5 660Q503 622 503 540V512H645V441Z" glyph-name="f_f_short" horiz-adv-x="658" /><glyph d="M340 441H203V0H115V441H40V512H115V530Q115 640 180.5 706.5Q246 773 355 773Q393 773 431.5 765.5Q470 758 502 745V457Q538 488 579 505.5Q620 523 660 523Q732 523 771 478Q810 433 810 350V0H722V336Q722 394 699.5 420.5Q677 447 629 447Q597 447 566.5 435.5Q536 424 502 399V0H414V691Q398 696 384.5 698Q371 700 353 700Q280 700 241.5 656.5Q203 613 203 530V512H340Z" glyph-name="f_h" horiz-adv-x="897" /><glyph d="M502 0H414V441H203V0H115V441H40V512H115V536Q115 644 171.5 708.5Q228 773 322 773Q345 773 362.5 770.5Q380 768 400 761V688Q383 693 367 695Q351 697 331 697Q266 697 234.5 657Q203 617 203 534V512H502ZM553 613Q528 613 511 630Q494 647 494 672Q494 697 511 714.5Q528 732 553 732Q578 732 595 714.5Q612 697 612 672Q612 647 595 630Q578 613 553 613Z" glyph-name="f_idieresis" horiz-adv-x="596" /><glyph d="M414 14V441H203V0H115V441H40V512H115V529Q115 638 178 705.5Q241 773 341 773Q373 773 400.5 766.5Q428 760 449 747V672Q422 685 397.5 691Q373 697 347 697Q278 697 240.5 653.5Q203 610 203 529V512H502V7Q502 -55 480 -109.5Q458 -164 411 -215H311Q361 -162 387.5 -103.5Q414 -45 414 14Z" glyph-name="f_j" horiz-adv-x="596" /><glyph d="M340 441H203V0H115V441H40V512H115V530Q115 640 180.5 706.5Q246 773 355 773Q393 773 431.5 765.5Q470 758 502 745V295L724 512H833L594 285L857 0H747L502 265V0H414V691Q398 696 384.5 698Q371 700 353 700Q280 700 241.5 656.5Q203 613 203 530V512H340Z" glyph-name="f_k" horiz-adv-x="863" /><glyph d="M203 441V0H115V441H40V512H115V540Q115 648 166.5 710.5Q218 773 306 773Q322 773 332.5 771.5Q343 770 353 767V694Q345 696 337.5 697Q330 698 316 698Q258 698 230.5 660Q203 622 203 540V512H345V441Z" glyph-name="f_short" horiz-adv-x="358" /><glyph d="M203 441V0H115V441H40V512H115V525Q115 631 168 694Q221 757 309 757Q326 757 340.5 755Q355 753 373 747V676Q358 680 346 681.5Q334 683 319 683Q260 683 231.5 644Q203 605 203 525V512H414V537Q414 645 468.5 709Q523 773 613 773Q633 773 649 770.5Q665 768 684 761V689Q668 694 654.5 695.5Q641 697 624 697Q562 697 532 657.5Q502 618 502 537V512H645V441H502V0H414V441Z" glyph-name="ff" horiz-adv-x="658" unicode="&#64256;" /><glyph d="M802 0H714V441H503V0H415V441H203V0H115V441H40V512H115V525Q115 631 168 694Q221 757 309 757Q326 757 340.5 755Q355 753 373 747V676Q358 680 346 681.5Q334 683 319 683Q260 683 231.5 644Q203 605 203 525V512H415V529Q415 638 478 705.5Q541 773 641 773Q673 773 700.5 766.5Q728 760 749 747V672Q722 685 697.5 691Q673 697 647 697Q578 697 540.5 653.5Q503 610 503 529V512H802Z" glyph-name="ffi" horiz-adv-x="896" unicode="&#64259;" /><glyph d="M640 441H503V0H415V441H203V0H115V441H40V512H115V525Q115 631 168 694Q221 757 309 757Q326 757 340.5 755Q355 753 373 747V676Q358 680 346 681.5Q334 683 319 683Q260 683 231.5 644Q203 605 203 525V512H415V530Q415 640 480.5 706.5Q546 773 655 773Q693 773 731.5 765.5Q770 758 802 745V0H714V691Q698 696 684.5 698Q671 700 653 700Q580 700 541.5 656.5Q503 613 503 530V512H640Z" glyph-name="ffl" horiz-adv-x="896" unicode="&#64260;" /><glyph d="M502 0H414V441H203V0H115V441H40V512H115V529Q115 638 178 705.5Q241 773 341 773Q373 773 400.5 766.5Q428 760 449 747V672Q422 685 397.5 691Q373 697 347 697Q278 697 240.5 653.5Q203 610 203 529V512H502Z" glyph-name="fi" horiz-adv-x="596" unicode="&#64257;" /><glyph d="M229 66Q319 66 372.5 105Q426 144 426 208Q426 275 361 308.5Q296 342 127 354L139 658H487V580H211L205 420Q361 409 437.5 357Q514 305 514 211Q514 113 435 51Q356 -11 233 -11Q179 -11 132.5 0.5Q86 12 49 34V120Q84 94 131 80Q178 66 229 66Z" glyph-name="five" horiz-adv-x="589" unicode="5" /><glyph d="M340 441H203V0H115V441H40V512H115V530Q115 640 180.5 706.5Q246 773 355 773Q393 773 431.5 765.5Q470 758 502 745V0H414V691Q398 696 384.5 698Q371 700 353 700Q280 700 241.5 656.5Q203 613 203 530V512H340Z" glyph-name="fl" horiz-adv-x="596" unicode="&#64258;" /><glyph d="M410 173V0H326V173H32V234Q65 338 135 456.5Q205 575 284 658H392Q305 569 236.5 464Q168 359 123 247H326V413H410V247H569V173Z" glyph-name="four" horiz-adv-x="589" unicode="4" /><glyph d="M247 175Q235 175 223 176Q203 166 193 157Q182 146 182 132Q182 117 194.5 108.5Q207 100 230 98L337 82Q423 70 464 37Q505 4 505 -52Q505 -129 429 -177.5Q353 -226 241 -226Q139 -226 73.5 -184.5Q8 -143 8 -78Q8 -29 48 6Q82 37 135 49Q133 52 130 55Q110 78 110 107Q110 134 129 156Q144 173 170 187Q134 199 106 224Q50 274 50 350Q50 425 106 474Q162 523 247 523Q284 523 316 512H509V446H407Q438 404 438 350Q438 273 384.5 224Q331 175 247 175ZM121 -4Q89 -29 89 -66Q89 -110 130.5 -134Q172 -158 245 -158Q322 -158 371.5 -131Q421 -104 421 -58Q421 -32 400 -16.5Q379 -1 329 7L193 26Q148 16 121 -4ZM247 239Q296 239 326.5 269Q357 299 357 350Q357 399 326.5 428.5Q296 458 247 458Q197 458 165.5 428.5Q134 399 134 350Q134 299 165.5 269Q197 239 247 239Z" glyph-name="g" horiz-adv-x="525" unicode="g" /><glyph d="M247 175Q235 175 223 176Q203 166 193 157Q182 146 182 132Q182 117 194.5 108.5Q207 100 230 98L337 82Q423 70 464 37Q505 4 505 -52Q505 -129 429 -177.5Q353 -226 241 -226Q139 -226 73.5 -184.5Q8 -143 8 -78Q8 -29 48 6Q82 37 135 49Q133 52 130 55Q110 78 110 107Q110 134 129 156Q144 173 170 187Q134 199 106 224Q50 274 50 350Q50 425 106 474Q162 523 247 523Q284 523 316 512H509V446H407Q438 404 438 350Q438 273 384.5 224Q331 175 247 175ZM121 -4Q89 -29 89 -66Q89 -110 130.5 -134Q172 -158 245 -158Q322 -158 371.5 -131Q421 -104 421 -58Q421 -32 400 -16.5Q379 -1 329 7L193 26Q148 16 121 -4ZM247 239Q296 239 326.5 269Q357 299 357 350Q357 399 326.5 428.5Q296 458 247 458Q197 458 165.5 428.5Q134 399 134 350Q134 299 165.5 269Q197 239 247 239ZM257 583Q189 583 149.5 635Q110 687 110 773H171Q174 714 195.5 683.5Q217 653 257 653Q297 653 319 683.5Q341 714 344 773H405Q405 687 365 635Q325 583 257 583Z" glyph-name="gbreve" horiz-adv-x="525" unicode="&#287;" /><glyph d="M247 175Q235 175 223 176Q203 166 193 157Q182 146 182 132Q182 117 194.5 108.5Q207 100 230 98L337 82Q423 70 464 37Q505 4 505 -52Q505 -129 429 -177.5Q353 -226 241 -226Q139 -226 73.5 -184.5Q8 -143 8 -78Q8 -29 48 6Q82 37 135 49Q133 52 130 55Q110 78 110 107Q110 134 129 156Q144 173 170 187Q134 199 106 224Q50 274 50 350Q50 425 106 474Q162 523 247 523Q284 523 316 512H509V446H407Q438 404 438 350Q438 273 384.5 224Q331 175 247 175ZM121 -4Q89 -29 89 -66Q89 -110 130.5 -134Q172 -158 245 -158Q322 -158 371.5 -131Q421 -104 421 -58Q421 -32 400 -16.5Q379 -1 329 7L193 26Q148 16 121 -4ZM247 239Q296 239 326.5 269Q357 299 357 350Q357 399 326.5 428.5Q296 458 247 458Q197 458 165.5 428.5Q134 399 134 350Q134 299 165.5 269Q197 239 247 239ZM104 583 208 773H305L409 583H351L256 712L163 583Z" glyph-name="gcircumflex" horiz-adv-x="525" unicode="&#285;" /><glyph d="M247 175Q235 175 223 176Q203 166 193 157Q182 146 182 132Q182 117 194.5 108.5Q207 100 230 98L337 82Q423 70 464 37Q505 4 505 -52Q505 -129 429 -177.5Q353 -226 241 -226Q139 -226 73.5 -184.5Q8 -143 8 -78Q8 -29 48 6Q82 37 135 49Q133 52 130 55Q110 78 110 107Q110 134 129 156Q144 173 170 187Q134 199 106 224Q50 274 50 350Q50 425 106 474Q162 523 247 523Q284 523 316 512H509V446H407Q438 404 438 350Q438 273 384.5 224Q331 175 247 175ZM121 -4Q89 -29 89 -66Q89 -110 130.5 -134Q172 -158 245 -158Q322 -158 371.5 -131Q421 -104 421 -58Q421 -32 400 -16.5Q379 -1 329 7L193 26Q148 16 121 -4ZM247 239Q296 239 326.5 269Q357 299 357 350Q357 399 326.5 428.5Q296 458 247 458Q197 458 165.5 428.5Q134 399 134 350Q134 299 165.5 269Q197 239 247 239ZM257 613Q229 613 211 631Q193 649 193 677Q193 705 211 723.5Q229 742 257 742Q285 742 303 723.5Q321 705 321 677Q321 649 303 631Q285 613 257 613Z" glyph-name="gdotaccent" horiz-adv-x="525" unicode="&#289;" /><glyph d="M536 575Q454 522 424 490.5Q394 459 395 425Q395 406 409.5 386Q424 366 472 326Q542 268 564.5 230.5Q587 193 587 151Q587 81 535 35Q483 -11 408 -11Q367 -11 330.5 -1Q294 9 261 29V115Q297 87 331.5 74.5Q366 62 408 62Q451 62 477.5 85.5Q504 109 504 146Q504 173 487 199.5Q470 226 414 271Q353 321 334 351Q315 381 315 414Q315 458 341 494.5Q367 531 448 590Q444 637 410.5 669Q377 701 326 701Q260 701 220.5 654.5Q181 608 181 528V0H93V535Q93 639 160 706Q227 773 327 773Q420 773 476.5 718Q533 663 536 575Z" glyph-name="germandbls" horiz-adv-x="630" unicode="&#223;" /><glyph d="M302 773 362 583H309L187 773Z" glyph-name="grave" horiz-adv-x="547" unicode="`" /><glyph d="M297 940 362 762H303L185 940Z" glyph-name="grave.cap" horiz-adv-x="547" /><glyph d="M53 188 465 337 53 487V569L536 387V288L53 106Z" glyph-name="greater" horiz-adv-x="589" unicode="&gt;" /><glyph d="M521 456 385 254 521 52H449L274 254L449 456ZM293 456 157 254 293 52H221L46 254L221 456Z" glyph-name="guillemotleft" horiz-adv-x="567" unicode="&#171;" /><glyph d="M118 456 293 254 118 52H46L181 254L46 456ZM346 456 521 254 346 52H274L409 254L274 456Z" glyph-name="guillemotright" horiz-adv-x="567" unicode="&#187;" /><glyph d="M293 456 157 254 293 52H221L46 254L221 456Z" glyph-name="guilsinglleft" horiz-adv-x="339" unicode="&#8249;" /><glyph d="M118 456 293 254 118 52H46L181 254L46 456Z" glyph-name="guilsinglright" horiz-adv-x="339" unicode="&#8250;" /><glyph d="M181 457Q217 488 258 505.5Q299 523 339 523Q411 523 450 478Q489 433 489 350V0H401V336Q401 394 378 421Q355 448 307 448Q275 448 245 437Q215 426 181 400V0H93V762H181V457Z" glyph-name="h" horiz-adv-x="576" unicode="h" /><glyph d="M20 674H93V762H181V674H323V612H181V457Q217 488 258 505.5Q299 523 339 523Q411 523 450 478Q489 433 489 350V0H401V336Q401 394 378 421Q355 448 307 448Q275 448 245 437Q215 426 181 400V0H93V612H20Z" glyph-name="hbar" horiz-adv-x="576" unicode="&#295;" /><glyph d="M181 457Q217 488 258 505.5Q299 523 339 523Q411 523 450 478Q489 433 489 350V0H401V336Q401 394 378 421Q355 448 307 448Q275 448 245 437Q215 426 181 400V0H93V762H181V457ZM143 790 242 968H341L439 790H384L291 907L199 790Z" glyph-name="hcircumflex" horiz-adv-x="576" unicode="&#293;" /><glyph d="M152 583H104L164 773H266ZM325 583H277L337 773H439Z" glyph-name="hungarumlaut" horiz-adv-x="547" unicode="&#733;" /><glyph d="M152 762H103L167 940H270ZM325 762H277L340 940H443Z" glyph-name="hungarumlaut.cap" horiz-adv-x="547" /><glyph d="M486 241H102V319H486Z" glyph-name="hyphen" horiz-adv-x="589" unicode="-" /><glyph d="M181 0H93V512H181ZM137 613Q109 613 91 631Q73 649 73 677Q73 705 91 723.5Q109 742 137 742Q164 742 182 723.5Q200 705 200 677Q200 650 182 631.5Q164 613 137 613Z" glyph-name="i" horiz-adv-x="274" unicode="i" /><glyph d="M181 0H93V512H181ZM137 613Q109 613 91 631Q73 649 73 677Q73 705 91 723.5Q109 742 137 742Q165 742 183 723.5Q201 705 201 677Q201 649 183 631Q165 613 137 613Z" glyph-name="i.dot" horiz-adv-x="274" /><glyph d="M181 0H93V512H181ZM283 773 161 583H107L168 773Z" glyph-name="iacute" horiz-adv-x="274" unicode="&#237;" /><glyph d="M181 0H93V512H181ZM137 583Q69 583 29.5 635Q-10 687 -10 773H51Q54 714 75.5 683.5Q97 653 137 653Q177 653 199 683.5Q221 714 224 773H285Q285 687 245 635Q205 583 137 583Z" glyph-name="ibreve" horiz-adv-x="274" unicode="&#301;" /><glyph d="M181 0H93V512H181ZM-16 583 88 773H185L289 583H231L136 712L43 583Z" glyph-name="icircumflex" horiz-adv-x="274" unicode="&#238;" /><glyph d="M181 0H93V512H181ZM43 613Q18 613 1 630Q-16 647 -16 672Q-16 697 1 714.5Q18 732 43 732Q68 732 85 714.5Q102 697 102 672Q102 647 85 630Q68 613 43 613ZM232 613Q207 613 190 630Q173 647 173 672Q173 697 190 714.5Q207 732 232 732Q257 732 274 714.5Q291 697 291 672Q291 647 274 630Q257 613 232 613Z" glyph-name="idieresis" horiz-adv-x="274" unicode="&#239;" /><glyph d="M181 0H93V512H181ZM106 773 166 583H113L-9 773Z" glyph-name="igrave" horiz-adv-x="274" unicode="&#236;" /><glyph d="M181 0H93V512H181ZM280 706V635H-6V706Z" glyph-name="imacron" horiz-adv-x="274" unicode="&#299;" /><glyph d="M137 613Q109 613 91 631Q73 649 73 677Q73 705 91 723.5Q109 742 137 742Q164 742 182 723.5Q200 705 200 677Q200 650 182 631.5Q164 613 137 613ZM110 0H93V512H181V0Q129 -35 106 -64.5Q83 -94 83 -123Q83 -143 96 -154.5Q109 -166 133 -166Q151 -166 169.5 -161Q188 -156 210 -145V-201Q193 -213 169.5 -219.5Q146 -226 121 -226Q76 -226 46 -200.5Q16 -175 16 -136Q16 -102 39.5 -68Q63 -34 110 0Z" glyph-name="iogonek" horiz-adv-x="274" unicode="&#303;" /><glyph d="M181 0H93V512H181ZM204 596Q187 596 169 607.5Q151 619 121 653Q98 680 87 687.5Q76 695 67 695Q46 695 31 669.5Q16 644 10 596H-45Q-43 667 -9.5 717.5Q24 768 71 768Q88 768 105.5 757Q123 746 154 711Q176 685 187 677Q198 669 208 669Q229 669 244 694.5Q259 720 265 768H320Q318 696 284.5 646Q251 596 204 596Z" glyph-name="itilde" horiz-adv-x="274" unicode="&#297;" /><glyph d="M137 613Q109 613 91 631Q73 649 73 677Q73 705 91 723.5Q109 742 137 742Q164 742 182 723.5Q200 705 200 677Q200 650 182 631.5Q164 613 137 613ZM93 14V512H181V7Q181 -55 158.5 -109Q136 -163 89 -215H-11Q40 -162 66.5 -103.5Q93 -45 93 14Z" glyph-name="j" horiz-adv-x="274" unicode="j" /><glyph d="M93 14V512H181V7Q181 -55 158.5 -109Q136 -163 89 -215H-11Q40 -162 66.5 -103.5Q93 -45 93 14ZM-14 583 90 773H187L291 583H233L138 712L45 583Z" glyph-name="jcircumflex" horiz-adv-x="274" unicode="&#309;" /><glyph d="M181 0H93V762H181V296L402 512H511L272 285L535 0H426L181 264Z" glyph-name="k" horiz-adv-x="541" unicode="k" /><glyph d="M181 0H93V512H181V296L402 512H511L272 285L535 0H426L181 264Z" glyph-name="kgreenlandic" horiz-adv-x="541" unicode="&#312;" /><glyph d="M181 0H93V762H181Z" glyph-name="l" horiz-adv-x="274" unicode="l" /><glyph d="M181 0H93V762H181ZM283 976 164 798H106L170 976Z" glyph-name="lacute" horiz-adv-x="274" unicode="&#314;" /><glyph d="M181 0H93V762H181ZM324 528H273L303 762H404Z" glyph-name="lcaron" horiz-adv-x="388" unicode="&#318;" /><glyph d="M181 0H93V762H181ZM333 328Q305 328 287 346Q269 364 269 392Q269 420 287 438.5Q305 457 333 457Q361 457 379 438.5Q397 420 397 392Q397 364 379 346Q361 328 333 328Z" glyph-name="ldot" horiz-adv-x="404" unicode="&#320;" /><glyph d="M536 106 53 288V387L536 569V487L124 337L536 188Z" glyph-name="less" horiz-adv-x="589" unicode="&lt;" /><glyph d="M18 350 125 410V762H213V454L325 517V447L213 384V0H125V340L18 279Z" glyph-name="lslash" horiz-adv-x="343" unicode="&#322;" /><glyph d="M181 400V0H93V512H181V457Q213 487 253 505Q293 523 331 523Q377 523 409.5 504.5Q442 486 460 449Q497 482 543 502.5Q589 523 631 523Q702 523 740 478Q778 433 778 350V0H691V332Q691 392 669 420Q647 448 601 448Q570 448 540 436.5Q510 425 479 400V0H392V332Q392 392 370 420Q348 448 302 448Q270 448 241 436.5Q212 425 181 400Z" glyph-name="m" horiz-adv-x="866" unicode="m" /><glyph d="M416 706V635H130V706Z" glyph-name="macron" horiz-adv-x="547" unicode="&#175;" /><glyph d="M428 857V786H119V857Z" glyph-name="macron.cap" horiz-adv-x="547" /><glyph d="M548 294H40V366H548Z" glyph-name="minus" horiz-adv-x="589" unicode="&#8722;" /><glyph d="M531 508 344 321 530 136 479 85 294 270 109 85 59 136 244 321 57 508 107 558 294 371 481 558Z" glyph-name="multiply" horiz-adv-x="589" unicode="&#215;" /><glyph d="M181 457Q217 488 258 505.5Q299 523 339 523Q411 523 450 478Q489 433 489 350V0H401V336Q401 394 378 421Q355 448 307 448Q275 448 245 437Q215 426 181 400V0H93V512H181V457Z" glyph-name="n" horiz-adv-x="576" unicode="n" /><glyph d="M181 457Q217 488 258 505.5Q299 523 339 523Q411 523 450 478Q489 433 489 350V0H401V336Q401 394 378 421Q355 448 307 448Q275 448 245 437Q215 426 181 400V0H93V512H181V457ZM432 773 310 583H256L317 773Z" glyph-name="nacute" horiz-adv-x="576" unicode="&#324;" /><glyph d="M181 457Q217 488 258 505.5Q299 523 339 523Q411 523 450 478Q489 433 489 350V0H401V336Q401 394 378 421Q355 448 307 448Q275 448 245 437Q215 426 181 400V0H93V512H181V457ZM198 773 291 644 386 773H444L340 583H243L139 773Z" glyph-name="ncaron" horiz-adv-x="576" unicode="&#328;" /><glyph d="M208 -11Q168 -11 132 -2Q96 7 72 22V95Q95 81 130.5 73Q166 65 206 65Q319 65 383 144Q441 215 447 334Q417 294 371 269Q320 241 260 241Q169 241 112 298Q55 355 55 449Q55 540 121 604.5Q187 669 281 669Q390 669 461.5 582.5Q533 496 533 361Q533 194 444 91.5Q355 -11 208 -11ZM402 533Q356 596 281 596Q220 596 180.5 555Q141 514 141 449Q141 386 180 348.5Q219 311 282 311Q331 311 374 335Q412 356 446 398Q440 480 402 533Z" glyph-name="nine" horiz-adv-x="589" unicode="9" /><glyph d="M181 457Q217 488 258 505.5Q299 523 339 523Q411 523 450 478Q489 433 489 350V0H401V336Q401 394 378 421Q355 448 307 448Q275 448 245 437Q215 426 181 400V0H93V512H181V457ZM358 596Q341 596 323 607.5Q305 619 275 653Q252 680 241 687.5Q230 695 221 695Q200 695 185 669.5Q170 644 164 596H109Q111 667 144.5 717.5Q178 768 225 768Q242 768 259.5 757Q277 746 308 711Q330 685 341 677Q352 669 362 669Q383 669 398 694.5Q413 720 419 768H474Q472 696 438.5 646Q405 596 358 596Z" glyph-name="ntilde" horiz-adv-x="576" unicode="&#241;" /><glyph d="M69 254H204L230 404H89L99 472H242L274 658H348L315 472H475L507 658H580L548 472H682L671 404H536L510 254H651L641 185H498L466 0H393L425 185H265L233 0H160L192 185H59ZM277 254H437L463 404H303Z" glyph-name="numbersign" horiz-adv-x="741" unicode="#" /><glyph d="M279 448Q213 448 175 396Q137 344 137 256Q137 168 175 116.5Q213 65 279 65Q344 65 382 117Q420 169 420 256Q420 344 382 396Q344 448 279 448ZM279 523Q378 523 443 447.5Q508 372 508 256Q508 140 443 64.5Q378 -11 279 -11Q180 -11 114.5 64.5Q49 140 49 256Q49 372 114.5 447.5Q180 523 279 523Z" glyph-name="o" horiz-adv-x="557" unicode="o" /><glyph d="M279 448Q213 448 175 396Q137 344 137 256Q137 168 175 116.5Q213 65 279 65Q344 65 382 117Q420 169 420 256Q420 344 382 396Q344 448 279 448ZM279 523Q378 523 443 447.5Q508 372 508 256Q508 140 443 64.5Q378 -11 279 -11Q180 -11 114.5 64.5Q49 140 49 256Q49 372 114.5 447.5Q180 523 279 523ZM426 773 304 583H250L311 773Z" glyph-name="oacute" horiz-adv-x="557" unicode="&#243;" /><glyph d="M279 448Q213 448 175 396Q137 344 137 256Q137 168 175 116.5Q213 65 279 65Q344 65 382 117Q420 169 420 256Q420 344 382 396Q344 448 279 448ZM279 523Q378 523 443 447.5Q508 372 508 256Q508 140 443 64.5Q378 -11 279 -11Q180 -11 114.5 64.5Q49 140 49 256Q49 372 114.5 447.5Q180 523 279 523ZM279 583Q211 583 171.5 635Q132 687 132 773H193Q196 714 217.5 683.5Q239 653 279 653Q319 653 341 683.5Q363 714 366 773H427Q427 687 387 635Q347 583 279 583Z" glyph-name="obreve" horiz-adv-x="557" unicode="&#335;" /><glyph d="M279 448Q213 448 175 396Q137 344 137 256Q137 168 175 116.5Q213 65 279 65Q344 65 382 117Q420 169 420 256Q420 344 382 396Q344 448 279 448ZM279 523Q378 523 443 447.5Q508 372 508 256Q508 140 443 64.5Q378 -11 279 -11Q180 -11 114.5 64.5Q49 140 49 256Q49 372 114.5 447.5Q180 523 279 523ZM126 583 230 773H327L431 583H373L278 712L185 583Z" glyph-name="ocircumflex" horiz-adv-x="557" unicode="&#244;" /><glyph d="M279 448Q213 448 175 396Q137 344 137 256Q137 168 175 116.5Q213 65 279 65Q344 65 382 117Q420 169 420 256Q420 344 382 396Q344 448 279 448ZM279 523Q378 523 443 447.5Q508 372 508 256Q508 140 443 64.5Q378 -11 279 -11Q180 -11 114.5 64.5Q49 140 49 256Q49 372 114.5 447.5Q180 523 279 523ZM185 613Q160 613 143 630Q126 647 126 672Q126 697 143 714.5Q160 732 185 732Q210 732 227 714.5Q244 697 244 672Q244 647 227 630Q210 613 185 613ZM374 613Q349 613 332 630Q315 647 315 672Q315 697 332 714.5Q349 732 374 732Q399 732 416 714.5Q433 697 433 672Q433 647 416 630Q399 613 374 613Z" glyph-name="odieresis" horiz-adv-x="557" unicode="&#246;" /><glyph d="M279 523Q345 523 398 486Q437 459 464 416Q491 461 532 489Q583 523 647 523Q749 523 798.5 447.5Q848 372 834 242H503Q508 167 552 119Q601 65 681 65Q724 65 756 73.5Q788 82 823 101V23Q790 6 753 -2.5Q716 -11 674 -11Q600 -11 541 25Q496 54 467 99Q439 54 397 25Q344 -11 279 -11Q180 -11 114.5 64.5Q49 140 49 256Q49 372 114.5 447.5Q180 523 279 523ZM279 448Q213 448 175 396Q137 344 137 256Q137 168 175 116.5Q213 65 279 65Q344 65 382.5 117Q421 169 421 256Q421 343 382.5 395.5Q344 448 279 448ZM750 304Q756 370 728 410Q700 450 646 450Q581 450 542 398Q513 360 506 304Z" glyph-name="oe" horiz-adv-x="885" unicode="&#339;" /><glyph d="M242 -136Q242 -93 275 -52Q308 -11 378 32L402 1Q353 -34 331 -63.5Q309 -93 309 -123Q309 -143 322.5 -154.5Q336 -166 359 -166Q377 -166 396 -161Q415 -156 437 -145V-201Q420 -213 396 -219.5Q372 -226 346 -226Q301 -226 271.5 -200.5Q242 -175 242 -136Z" glyph-name="ogonek" horiz-adv-x="547" unicode="&#731;" /><glyph d="M279 448Q213 448 175 396Q137 344 137 256Q137 168 175 116.5Q213 65 279 65Q344 65 382 117Q420 169 420 256Q420 344 382 396Q344 448 279 448ZM279 523Q378 523 443 447.5Q508 372 508 256Q508 140 443 64.5Q378 -11 279 -11Q180 -11 114.5 64.5Q49 140 49 256Q49 372 114.5 447.5Q180 523 279 523ZM263 773 323 583H270L148 773Z" glyph-name="ograve" horiz-adv-x="557" unicode="&#242;" /><glyph d="M279 448Q213 448 175 396Q137 344 137 256Q137 168 175 116.5Q213 65 279 65Q344 65 382 117Q420 169 420 256Q420 344 382 396Q344 448 279 448ZM279 523Q378 523 443 447.5Q508 372 508 256Q508 140 443 64.5Q378 -11 279 -11Q180 -11 114.5 64.5Q49 140 49 256Q49 372 114.5 447.5Q180 523 279 523ZM206 583H158L218 773H320ZM379 583H331L391 773H493Z" glyph-name="ohungarumlaut" horiz-adv-x="557" unicode="&#337;" /><glyph d="M279 448Q213 448 175 396Q137 344 137 256Q137 168 175 116.5Q213 65 279 65Q344 65 382 117Q420 169 420 256Q420 344 382 396Q344 448 279 448ZM279 523Q378 523 443 447.5Q508 372 508 256Q508 140 443 64.5Q378 -11 279 -11Q180 -11 114.5 64.5Q49 140 49 256Q49 372 114.5 447.5Q180 523 279 523ZM422 706V635H136V706Z" glyph-name="omacron" horiz-adv-x="557" unicode="&#333;" /><glyph d="M528 78V0H91V78H276V554L90 494V565L310 662H365V78Z" glyph-name="one" horiz-adv-x="589" unicode="1" /><glyph d="M327 355V292H56V355H160V611L53 579V640L197 701H234V355Z" glyph-name="onesuperior" horiz-adv-x="367" unicode="&#185;" /><glyph d="M383 188H96V249H383ZM154 433Q154 411 170 397Q186 383 212 383Q234 383 255 390Q276 397 299 413V504Q227 505 190.5 487Q154 469 154 433ZM379 334H308L300 372Q273 348 245.5 336.5Q218 325 187 325Q141 325 111 353.5Q81 382 81 426Q81 490 136.5 523Q192 556 299 556V573Q299 611 280.5 629Q262 647 224 647Q193 647 161.5 638Q130 629 101 612V674Q123 690 160 700.5Q197 711 228 711Q298 711 334 677.5Q370 644 370 581V401Q370 383 371.5 370.5Q373 358 379 334Z" glyph-name="ordfeminine" horiz-adv-x="474" unicode="&#170;" /><glyph d="M242 647Q195 647 168.5 612.5Q142 578 142 519Q142 461 168.5 426.5Q195 392 242 392Q287 392 313.5 426.5Q340 461 340 519Q340 578 313.5 612.5Q287 647 242 647ZM242 712Q317 712 365.5 657.5Q414 603 414 519Q414 436 365 381.5Q316 327 242 327Q168 327 118.5 381.5Q69 436 69 519Q69 603 118 657.5Q167 712 242 712ZM383 189H99V250H383Z" glyph-name="ordmasculine" horiz-adv-x="483" unicode="&#186;" /><glyph d="M279 523Q343 523 394 490L435 556H502L438 453L443 447Q508 372 508 256Q508 140 443 64.5Q378 -11 279 -11Q215 -11 166 20L125 -46H60L123 55Q118 59 114 64Q49 140 49 256Q49 372 114.5 447.5Q180 523 279 523ZM279 452Q212 452 173.5 399Q135 346 135 256Q135 175 166 124L355 428Q323 452 279 452ZM279 60Q345 60 383.5 113.5Q422 167 422 256Q422 332 393 383L204 81Q236 60 279 60Z" glyph-name="oslash" horiz-adv-x="557" unicode="&#248;" /><glyph d="M279 523Q343 523 394 490L435 556H502L438 453L443 447Q508 372 508 256Q508 140 443 64.5Q378 -11 279 -11Q215 -11 166 20L125 -46H60L123 55Q118 59 114 64Q49 140 49 256Q49 372 114.5 447.5Q180 523 279 523ZM279 452Q212 452 173.5 399Q135 346 135 256Q135 175 166 124L355 428Q323 452 279 452ZM279 60Q345 60 383.5 113.5Q422 167 422 256Q422 332 393 383L204 81Q236 60 279 60ZM423 773 301 583H247L308 773Z" glyph-name="oslashacute" horiz-adv-x="557" unicode="&#511;" /><glyph d="M279 448Q213 448 175 396Q137 344 137 256Q137 168 175 116.5Q213 65 279 65Q344 65 382 117Q420 169 420 256Q420 344 382 396Q344 448 279 448ZM279 523Q378 523 443 447.5Q508 372 508 256Q508 140 443 64.5Q378 -11 279 -11Q180 -11 114.5 64.5Q49 140 49 256Q49 372 114.5 447.5Q180 523 279 523ZM348 596Q331 596 313 607.5Q295 619 265 653Q242 680 231 687.5Q220 695 211 695Q190 695 175 669.5Q160 644 154 596H99Q101 667 134.5 717.5Q168 768 215 768Q232 768 249.5 757Q267 746 298 711Q320 685 331 677Q342 669 352 669Q373 669 388 694.5Q403 720 409 768H464Q462 696 428.5 646Q395 596 348 596Z" glyph-name="otilde" horiz-adv-x="557" unicode="&#245;" /><glyph d="M306 449Q271 449 237.5 435.5Q204 422 181 400V87Q198 73 223 65.5Q248 58 278 58Q353 58 398 114.5Q443 171 443 265Q443 351 406 400Q369 449 306 449ZM181 20V-215H93V512H181V457Q210 487 249.5 505Q289 523 328 523Q422 523 477 454.5Q532 386 532 269Q532 145 463 67Q394 -11 287 -11Q258 -11 230 -2.5Q202 6 181 20Z" glyph-name="p" horiz-adv-x="581" unicode="p" /><glyph d="M262 701H275V329H262Q160 329 98 379Q36 429 36 512Q36 595 99.5 648Q163 701 262 701ZM451 623V115Q451 23 429 -44.5Q407 -112 357 -169H263Q318 -109 341.5 -41.5Q365 26 365 117V701H576V623Z" glyph-name="paragraph" horiz-adv-x="612" unicode="&#182;" /><glyph d="M174 319Q174 195 234.5 77.5Q295 -40 397 -124H303Q201 -39 141.5 78Q82 195 82 319Q82 443 142 560Q202 677 303 762H397Q295 678 234.5 560.5Q174 443 174 319Z" glyph-name="parenleft" horiz-adv-x="433" unicode="(" /><glyph d="M259 319Q259 443 198.5 560.5Q138 678 36 762H130Q231 677 291 560Q351 443 351 319Q351 195 291.5 78Q232 -39 130 -124H36Q138 -40 198.5 77.5Q259 195 259 319Z" glyph-name="parenright" horiz-adv-x="433" unicode=")" /><glyph d="M145 -11 581 669H654L218 -11ZM186 322Q119 322 78 370Q37 418 37 496Q37 573 78 621Q119 669 186 669Q252 669 293.5 620.5Q335 572 335 496Q335 419 293.5 370.5Q252 322 186 322ZM186 614Q148 614 131 588Q114 562 114 496Q114 429 131 402.5Q148 376 186 376Q224 376 241 403Q258 430 258 496Q258 561 241 587.5Q224 614 186 614ZM614 336Q680 336 721.5 287.5Q763 239 763 162Q763 86 721.5 37.5Q680 -11 614 -11Q548 -11 506 37.5Q464 86 464 162Q464 239 506 287.5Q548 336 614 336ZM614 44Q652 44 669 70Q686 96 686 162Q686 229 669 255Q652 281 614 281Q576 281 559 254Q542 227 542 162Q542 98 559 71Q576 44 614 44Z" glyph-name="percent" horiz-adv-x="800" unicode="%" /><glyph d="M157 -6Q127 -6 105 16.5Q83 39 83 69Q83 100 105 122.5Q127 145 157 145Q187 145 209 122Q231 99 231 69Q231 39 209 16.5Q187 -6 157 -6Z" glyph-name="period" horiz-adv-x="313" unicode="." /><glyph d="M177 205Q147 205 125 227.5Q103 250 103 280Q103 311 125 333.5Q147 356 177 356Q207 356 229 333Q251 310 251 280Q251 250 229 227.5Q207 205 177 205Z" glyph-name="periodcentered" horiz-adv-x="353" unicode="&#183;" /><glyph d="M548 294H330V76H258V294H40V366H258V584H330V366H548Z" glyph-name="plus" horiz-adv-x="589" unicode="+" /><glyph d="M279 63Q312 63 342.5 76Q373 89 400 114V433Q382 443 360 447.5Q338 452 311 452Q238 452 188 394.5Q138 337 138 246Q138 161 176 112Q214 63 279 63ZM313 523Q359 523 403 512.5Q447 502 487 481V-215H400V54Q373 25 335 7Q297 -11 258 -11Q164 -11 106.5 58Q49 127 49 242Q49 365 124.5 444Q200 523 313 523Z" glyph-name="q" horiz-adv-x="581" unicode="q" /><glyph d="M251 712Q345 712 401 664Q457 616 457 534Q457 497 441.5 464.5Q426 432 374 380Q329 335 312 307Q295 279 288 249H204Q210 287 229 322.5Q248 358 298 411Q339 456 351 479Q363 502 363 526Q363 575 331.5 601.5Q300 628 241 628Q192 628 139.5 604.5Q87 581 44 540V631Q86 668 141.5 690Q197 712 251 712ZM251 -6Q221 -6 199 16.5Q177 39 177 69Q177 99 199 122Q221 145 251 145Q281 145 303.5 122Q326 99 326 69Q326 39 303.5 16.5Q281 -6 251 -6Z" glyph-name="question" horiz-adv-x="500" unicode="?" /><glyph d="M250 -11Q156 -11 100 37Q44 85 44 167Q44 204 59.5 236.5Q75 269 127 321Q172 366 189 394Q206 422 213 452H297Q291 414 272 378.5Q253 343 203 290Q162 245 150 222Q138 199 138 175Q138 126 169.5 99.5Q201 73 260 73Q309 73 361.5 96.5Q414 120 457 161V70Q415 33 359.5 11Q304 -11 250 -11ZM250 707Q280 707 302 684.5Q324 662 324 632Q324 602 302 579Q280 556 250 556Q220 556 197.5 579Q175 602 175 632Q175 662 197.5 684.5Q220 707 250 707Z" glyph-name="questiondown" horiz-adv-x="500" unicode="&#191;" /><glyph d="M306 485H246V762H351ZM133 485H73V762H178Z" glyph-name="quotedbl" horiz-adv-x="413" unicode="&quot;" /><glyph d="M80 129H177Q177 44 155 -22Q133 -88 86 -142H23Q53 -92 66.5 -30Q80 32 80 129ZM261 129H358Q358 44 336 -22Q314 -88 267 -142H204Q234 -92 247.5 -30Q261 32 261 129Z" glyph-name="quotedblbase" horiz-adv-x="425" unicode="&#8222;" /><glyph d="M346 491H248Q248 575 270.5 641Q293 707 340 762H403Q373 714 359.5 654Q346 594 346 491ZM165 491H67Q67 575 89.5 641Q112 707 159 762H222Q192 714 178.5 654Q165 594 165 491Z" glyph-name="quotedblleft" horiz-adv-x="425" unicode="&#8220;" /><glyph d="M80 762H177Q177 677 155 611Q133 545 86 491H23Q53 541 66.5 602.5Q80 664 80 762ZM261 762H358Q358 677 336 611Q314 545 267 491H204Q234 541 247.5 602.5Q261 664 261 762Z" glyph-name="quotedblright" horiz-adv-x="245" unicode="&#8221;" /><glyph d="M165 491H67Q67 575 89.5 641Q112 707 159 762H222Q192 714 178.5 654Q165 594 165 491Z" glyph-name="quoteleft" horiz-adv-x="245" unicode="&#8216;" /><glyph d="M80 762H177Q177 677 155 611Q133 545 86 491H23Q53 541 66.5 602.5Q80 664 80 762Z" glyph-name="quoteright" horiz-adv-x="245" unicode="&#8217;" /><glyph d="M80 129H177Q177 44 155 -22Q133 -88 86 -142H23Q53 -92 66.5 -30Q80 32 80 129Z" glyph-name="quotesinglbase" horiz-adv-x="245" unicode="&#8218;" /><glyph d="M133 485H73V762H178Z" glyph-name="quotesingle" horiz-adv-x="240" unicode="'" /><glyph d="M181 356V0H93V512H181V425Q228 483 274.5 504Q321 525 374 517V424Q319 437 269.5 419.5Q220 402 181 356Z" glyph-name="r" horiz-adv-x="402" unicode="r" /><glyph d="M181 356V0H93V512H181V425Q228 483 274.5 504Q321 525 374 517V424Q319 437 269.5 419.5Q220 402 181 356ZM374 773 252 583H198L259 773Z" glyph-name="racute" horiz-adv-x="402" unicode="&#341;" /><glyph d="M181 356V0H93V512H181V425Q228 483 274.5 504Q321 525 374 517V424Q319 437 269.5 419.5Q220 402 181 356ZM139 773 232 644 327 773H385L281 583H184L80 773Z" glyph-name="rcaron" horiz-adv-x="402" unicode="&#345;" /><glyph d="M407 657Q277 657 189 569.5Q101 482 101 351Q101 219 189 131.5Q277 44 407 44Q536 44 624 132Q712 220 712 351Q712 482 624 569.5Q536 657 407 657ZM407 -11Q254 -11 150 92.5Q46 196 46 351Q46 505 150 608.5Q254 712 407 712Q560 712 663.5 609Q767 506 767 351Q767 196 663.5 92.5Q560 -11 407 -11ZM460 335 582 165H500L394 316H349V165H277V552H401Q469 552 507 523Q545 494 545 442Q545 407 521.5 378.5Q498 350 460 335ZM391 494H349V371H412Q439 378 454.5 395Q470 412 470 436Q470 465 450 479.5Q430 494 391 494Z" glyph-name="registered" horiz-adv-x="813" unicode="&#174;" /><glyph d="M254 645Q279 645 297 662.5Q315 680 315 705Q315 730 297 747.5Q279 765 254 765Q229 765 211 747.5Q193 730 193 705Q193 680 211 662.5Q229 645 254 645ZM254 817Q300 817 333 784Q366 751 366 705Q366 659 333 626.5Q300 594 254 594Q208 594 175 626.5Q142 659 142 705Q142 751 175 784Q208 817 254 817Z" glyph-name="ring" horiz-adv-x="547" unicode="&#730;" /><glyph d="M259 939Q229 939 208.5 918Q188 897 188 867Q188 837 208.5 816.5Q229 796 259 796Q290 796 310.5 816.5Q331 837 331 867Q331 897 310 918Q289 939 259 939ZM259 739Q208 739 169.5 777.5Q131 816 131 867Q131 918 169.5 956.5Q208 995 259 995Q311 995 349.5 957Q388 919 388 867Q388 816 349.5 777.5Q311 739 259 739Z" glyph-name="ring.cap" horiz-adv-x="547" /><glyph d="M206 -11Q161 -11 118 -0.5Q75 10 43 29V115Q79 89 120 76Q161 63 206 63Q257 63 287.5 83Q318 103 318 137Q318 162 298.5 180Q279 198 214 223Q168 240 146.5 251Q125 262 110 274Q86 294 74.5 319Q63 344 63 376Q63 440 113 481.5Q163 523 240 523Q276 523 307.5 515Q339 507 371 489V408Q341 429 309.5 439.5Q278 450 244 450Q200 450 173.5 430.5Q147 411 147 379Q147 354 166.5 336Q186 318 252 294Q297 277 318.5 266.5Q340 256 355 243Q379 224 391 199Q403 174 403 143Q403 74 347 31.5Q291 -11 206 -11Z" glyph-name="s" horiz-adv-x="450" unicode="s" /><glyph d="M206 -11Q161 -11 118 -0.5Q75 10 43 29V115Q79 89 120 76Q161 63 206 63Q257 63 287.5 83Q318 103 318 137Q318 162 298.5 180Q279 198 214 223Q168 240 146.5 251Q125 262 110 274Q86 294 74.5 319Q63 344 63 376Q63 440 113 481.5Q163 523 240 523Q276 523 307.5 515Q339 507 371 489V408Q341 429 309.5 439.5Q278 450 244 450Q200 450 173.5 430.5Q147 411 147 379Q147 354 166.5 336Q186 318 252 294Q297 277 318.5 266.5Q340 256 355 243Q379 224 391 199Q403 174 403 143Q403 74 347 31.5Q291 -11 206 -11ZM379 773 257 583H203L264 773Z" glyph-name="sacute" horiz-adv-x="450" unicode="&#347;" /><glyph d="M206 -11Q161 -11 118 -0.5Q75 10 43 29V115Q79 89 120 76Q161 63 206 63Q257 63 287.5 83Q318 103 318 137Q318 162 298.5 180Q279 198 214 223Q168 240 146.5 251Q125 262 110 274Q86 294 74.5 319Q63 344 63 376Q63 440 113 481.5Q163 523 240 523Q276 523 307.5 515Q339 507 371 489V408Q341 429 309.5 439.5Q278 450 244 450Q200 450 173.5 430.5Q147 411 147 379Q147 354 166.5 336Q186 318 252 294Q297 277 318.5 266.5Q340 256 355 243Q379 224 391 199Q403 174 403 143Q403 74 347 31.5Q291 -11 206 -11ZM144 778 237 649 332 778H390L286 588H189L85 778Z" glyph-name="scaron" horiz-adv-x="450" unicode="&#353;" /><glyph d="M206 -11Q161 -11 118 -0.5Q75 10 43 29V115Q79 89 120 76Q161 63 206 63Q257 63 287.5 83Q318 103 318 137Q318 162 298.5 180Q279 198 214 223Q168 240 146.5 251Q125 262 110 274Q86 294 74.5 319Q63 344 63 376Q63 440 113 481.5Q163 523 240 523Q276 523 307.5 515Q339 507 371 489V408Q341 429 309.5 439.5Q278 450 244 450Q200 450 173.5 430.5Q147 411 147 379Q147 354 166.5 336Q186 318 252 294Q297 277 318.5 266.5Q340 256 355 243Q379 224 391 199Q403 174 403 143Q403 74 347 31.5Q291 -11 206 -11ZM85 583 189 773H286L390 583H332L237 712L144 583Z" glyph-name="scircumflex" horiz-adv-x="450" unicode="&#349;" /><glyph d="M318 640Q271 640 240.5 618Q210 596 210 560Q210 530 225 507.5Q240 485 288 447L440 327Q484 294 499.5 266.5Q515 239 515 206Q515 181 501.5 158Q488 135 469 123L440 150Q455 177 444 203.5Q433 230 390 264L211 411Q166 447 147.5 478.5Q129 510 129 551Q129 621 182.5 666.5Q236 712 316 712Q359 712 394 703Q429 694 466 672V589Q428 616 393 628Q358 640 318 640ZM272 -102Q318 -102 348.5 -79.5Q379 -57 379 -22Q379 9 364 31Q349 53 301 90L150 212Q105 246 89.5 273Q74 300 74 333Q74 358 87.5 381Q101 404 121 415L149 389Q135 361 146 335Q157 309 200 274L379 128Q424 91 442.5 59Q461 27 461 -12Q461 -82 407 -128Q353 -174 273 -174Q232 -174 196.5 -165Q161 -156 123 -134V-50Q163 -78 197.5 -90Q232 -102 272 -102Z" glyph-name="section" horiz-adv-x="590" unicode="&#167;" /><glyph d="M109 129H214Q214 49 181.5 -39Q149 -127 107 -172H44Q73 -124 91 -40.5Q109 43 109 129ZM157 326Q127 326 105 348.5Q83 371 83 401Q83 432 105 454.5Q127 477 157 477Q187 477 209 454Q231 431 231 401Q231 371 209 348.5Q187 326 157 326Z" glyph-name="semicolon" horiz-adv-x="312" unicode=";" /><glyph d="M48 658H528V594Q500 459 410 282.5Q320 106 222 0H118Q224 116 316 287Q401 446 438 580H48Z" glyph-name="seven" horiz-adv-x="589" unicode="7" /><glyph d="M381 669Q421 669 457 660Q493 651 517 636V563Q494 577 458.5 585Q423 593 383 593Q270 593 205 513Q148 442 141 324Q172 364 217 389Q269 417 329 417Q420 417 477 360Q534 303 534 209Q534 118 468 53.5Q402 -11 308 -11Q199 -11 127.5 75.5Q56 162 56 297Q56 464 145 566.5Q234 669 381 669ZM187 125Q233 62 308 62Q369 62 408.5 103Q448 144 448 209Q448 272 409 309.5Q370 347 307 347Q258 347 215 323Q177 301 142 260Q149 177 187 125Z" glyph-name="six" horiz-adv-x="589" unicode="6" /><glyph d="M101 -124H18L301 762H386Z" glyph-name="slash" horiz-adv-x="404" unicode="/" /><glyph glyph-name="space" horiz-adv-x="282" unicode=" " /><glyph d="M54 59 121 222H30L53 283H417L397 222H209L148 73H555V0H54ZM344 527Q331 509 317 484Q307 466 291 431H454L433 369H81L103 431H203Q256 556 311 609Q372 669 457 669Q485 669 511 663.5Q537 658 565 647V570Q535 582 512.5 586.5Q490 591 461 591Q424 591 396 575.5Q368 560 344 527Z" glyph-name="sterling" horiz-adv-x="589" unicode="&#163;" /><glyph d="M30 441V512H111V634H199V512H371V441H199V147Q199 106 219 85Q239 64 279 64Q307 64 330 69Q353 74 386 87V15Q357 2 327.5 -4.5Q298 -11 266 -11Q191 -11 151 28Q111 67 111 141V441Z" glyph-name="t" horiz-adv-x="425" unicode="t" /><glyph d="M30 441V512H111V634H199V512H371V441H199V323H369V255H199V147Q199 106 219 85Q239 64 279 64Q307 64 330 69Q353 74 386 87V15Q357 2 327.5 -4.5Q298 -11 266 -11Q191 -11 151 28Q111 67 111 141V255H30V323H111V441Z" glyph-name="tbar" horiz-adv-x="435" unicode="&#359;" /><glyph d="M30 441V512H111V634H199V512H371V441H199V147Q199 106 219 85Q239 64 279 64Q307 64 330 69Q353 74 386 87V15Q357 2 327.5 -4.5Q298 -11 266 -11Q191 -11 151 28Q111 67 111 141V441ZM316 583H265L295 817H396Z" glyph-name="tcaron" horiz-adv-x="425" unicode="&#357;" /><glyph d="M333 -129Q333 -172 297.5 -199Q262 -226 208 -226Q176 -226 151 -219.5Q126 -213 108 -201V-143Q133 -158 156 -164.5Q179 -171 205 -171Q235 -171 252.5 -159.5Q270 -148 270 -129Q270 -109 246 -99Q222 -89 174 -89L208 -4Q174 5 151 28Q111 67 111 141V441H30V512H111V634H199V512H371V441H199V147Q199 106 219 85Q239 64 279 64Q307 64 330 69Q353 74 386 87V15Q357 2 327.5 -4.5Q298 -11 266 -11Q257 -11 249 -10L235 -48Q283 -54 308 -75Q333 -96 333 -129Z" glyph-name="tcommaaccent" horiz-adv-x="425" unicode="&#355;" /><glyph d="M306 449Q271 449 237.5 435.5Q204 422 181 400V87Q198 73 223 65.5Q248 58 278 58Q353 58 398 114.5Q443 171 443 265Q443 351 406 400Q369 449 306 449ZM287 -11Q258 -11 230 -2.5Q202 6 181 20V-215H93V762H181V457Q210 487 249.5 505Q289 523 328 523Q422 523 477 454.5Q532 386 532 269Q532 145 463 67Q394 -11 287 -11Z" glyph-name="thorn" horiz-adv-x="581" unicode="&#254;" /><glyph d="M227 66Q316 66 373 105Q430 144 430 206Q430 267 374 296Q318 325 197 326V380L386 580H79V658H479V574L297 384Q400 376 461 329Q522 282 522 205Q522 111 438.5 50Q355 -11 228 -11Q175 -11 128.5 0.5Q82 12 43 34V117Q80 92 127 79Q174 66 227 66Z" glyph-name="three" horiz-adv-x="589" unicode="3" /><glyph d="M145 348Q193 348 222.5 368Q252 388 252 422Q252 456 220.5 471Q189 486 115 486V532L238 637H47V701H303V627L194 535Q255 529 291.5 499Q328 469 328 422Q328 363 276 324Q224 285 149 285Q115 285 86 292Q57 299 33 312V381Q59 365 87 356.5Q115 348 145 348Z" glyph-name="threesuperior" horiz-adv-x="367" unicode="&#179;" /><glyph d="M340 596Q323 596 305 607.5Q287 619 257 653Q234 680 223 687.5Q212 695 203 695Q182 695 167 669.5Q152 644 146 596H91Q93 667 126.5 717.5Q160 768 207 768Q224 768 241.5 757Q259 746 290 711Q312 685 323 677Q334 669 344 669Q365 669 380 694.5Q395 720 401 768H456Q454 696 420.5 646Q387 596 340 596Z" glyph-name="tilde" horiz-adv-x="547" unicode="&#732;" /><glyph d="M342 761Q325 761 307 772Q289 783 258 818Q234 845 222.5 853Q211 861 201 861Q180 861 165.5 835Q151 809 145 762H88Q90 833 124 883.5Q158 934 205 934Q222 934 240 923Q258 912 289 877Q313 851 324 843Q335 835 345 835Q366 835 381 860.5Q396 886 402 934H459Q456 861 422.5 811Q389 761 342 761Z" glyph-name="tilde.cap" horiz-adv-x="547" /><glyph d="M151 642H53V701H317V642H219V357H151ZM625 627 568 428H520L463 627H458L440 357H373L402 701H491L543 517H549L601 701H687L715 357H649L631 627Z" glyph-name="trademark" horiz-adv-x="790" unicode="&#8482;" /><glyph d="M332 325Q373 368 390.5 401.5Q408 435 408 468Q408 522 372 553.5Q336 585 273 585Q220 585 166.5 560.5Q113 536 70 493V582Q114 623 170.5 646Q227 669 284 669Q383 669 441.5 617Q500 565 500 478Q500 434 479.5 392Q459 350 414 300Q400 285 381.5 267Q363 249 266 161L171 78H531V0H58V74L210 211Q260 257 290.5 285.5Q321 314 332 325Z" glyph-name="two" horiz-adv-x="589" unicode="2" /><glyph d="M231 576Q231 606 214 622.5Q197 639 164 639Q133 639 100 624Q67 609 40 584V657Q69 681 105 695Q141 709 176 709Q238 709 274 676Q310 643 310 588Q310 548 283.5 508Q257 468 185 405L127 357H329V292H33V356L129 438Q198 501 214.5 526.5Q231 552 231 576Z" glyph-name="twosuperior" horiz-adv-x="367" unicode="&#178;" /><glyph d="M481 0H393V55Q357 23 316.5 6Q276 -11 236 -11Q165 -11 126 34.5Q87 80 87 162V512H175V181Q175 120 197.5 92Q220 64 267 64Q299 64 330 76Q361 88 393 114V512H481Z" glyph-name="u" horiz-adv-x="573" unicode="u" /><glyph d="M481 0H393V55Q357 23 316.5 6Q276 -11 236 -11Q165 -11 126 34.5Q87 80 87 162V512H175V181Q175 120 197.5 92Q220 64 267 64Q299 64 330 76Q361 88 393 114V512H481ZM428 773 306 583H252L313 773Z" glyph-name="uacute" horiz-adv-x="573" unicode="&#250;" /><glyph d="M481 0H393V55Q357 23 316.5 6Q276 -11 236 -11Q165 -11 126 34.5Q87 80 87 162V512H175V181Q175 120 197.5 92Q220 64 267 64Q299 64 330 76Q361 88 393 114V512H481ZM283 583Q215 583 175.5 635Q136 687 136 773H197Q200 714 221.5 683.5Q243 653 283 653Q323 653 345 683.5Q367 714 370 773H431Q431 687 391 635Q351 583 283 583Z" glyph-name="ubreve" horiz-adv-x="573" unicode="&#365;" /><glyph d="M481 0H393V55Q357 23 316.5 6Q276 -11 236 -11Q165 -11 126 34.5Q87 80 87 162V512H175V181Q175 120 197.5 92Q220 64 267 64Q299 64 330 76Q361 88 393 114V512H481ZM130 583 234 773H331L435 583H377L282 712L189 583Z" glyph-name="ucircumflex" horiz-adv-x="573" unicode="&#251;" /><glyph d="M481 0H393V55Q357 23 316.5 6Q276 -11 236 -11Q165 -11 126 34.5Q87 80 87 162V512H175V181Q175 120 197.5 92Q220 64 267 64Q299 64 330 76Q361 88 393 114V512H481ZM189 613Q164 613 147 630Q130 647 130 672Q130 697 147 714.5Q164 732 189 732Q214 732 231 714.5Q248 697 248 672Q248 647 231 630Q214 613 189 613ZM378 613Q353 613 336 630Q319 647 319 672Q319 697 336 714.5Q353 732 378 732Q403 732 420 714.5Q437 697 437 672Q437 647 420 630Q403 613 378 613Z" glyph-name="udieresis" horiz-adv-x="573" unicode="&#252;" /><glyph d="M481 0H393V55Q357 23 316.5 6Q276 -11 236 -11Q165 -11 126 34.5Q87 80 87 162V512H175V181Q175 120 197.5 92Q220 64 267 64Q299 64 330 76Q361 88 393 114V512H481ZM266 773 326 583H273L151 773Z" glyph-name="ugrave" horiz-adv-x="573" unicode="&#249;" /><glyph d="M481 0H393V55Q357 23 316.5 6Q276 -11 236 -11Q165 -11 126 34.5Q87 80 87 162V512H175V181Q175 120 197.5 92Q220 64 267 64Q299 64 330 76Q361 88 393 114V512H481ZM209 583H161L221 773H323ZM382 583H334L394 773H496Z" glyph-name="uhungarumlaut" horiz-adv-x="573" unicode="&#369;" /><glyph d="M481 0H393V55Q357 23 316.5 6Q276 -11 236 -11Q165 -11 126 34.5Q87 80 87 162V512H175V181Q175 120 197.5 92Q220 64 267 64Q299 64 330 76Q361 88 393 114V512H481ZM426 706V635H140V706Z" glyph-name="umacron" horiz-adv-x="573" unicode="&#363;" /><glyph d="M486 -127H102V-49H486Z" glyph-name="underscore" horiz-adv-x="589" unicode="_" /><glyph glyph-name="uni000D" horiz-adv-x="282" unicode="" /><glyph d="M200 -37H291Q291 -92 262 -147.5Q233 -203 194 -226H129Q160 -194 180 -141.5Q200 -89 200 -37Z" glyph-name="uni00200326" horiz-adv-x="455" /><glyph d="M235 584H143Q143 638 172.5 693.5Q202 749 241 773H305Q274 740 254.5 688Q235 636 235 584Z" glyph-name="uni00200326.alt" horiz-adv-x="455" /><glyph glyph-name="uni00A0" horiz-adv-x="282" unicode="&#160;" /><glyph d="M546 328V15Q512 3 469 -4Q426 -11 386 -11Q240 -11 144.5 86Q49 183 49 342Q49 504 144.5 607.5Q240 711 385 711Q432 711 472.5 699.5Q513 688 542 666V577Q512 603 472 616.5Q432 630 387 630Q280 630 211 549Q142 468 142 342Q142 218 210.5 143Q279 68 383 68Q407 68 423 70Q439 72 457 78V328ZM333 -37H424Q424 -92 395 -147.5Q366 -203 327 -226H262Q293 -194 313 -141.5Q333 -89 333 -37Z" glyph-name="uni0122" horiz-adv-x="615" unicode="&#290;" /><glyph d="M247 175Q235 175 223 176Q203 166 193 157Q182 146 182 132Q182 117 194.5 108.5Q207 100 230 98L337 82Q423 70 464 37Q505 4 505 -52Q505 -129 429 -177.5Q353 -226 241 -226Q139 -226 73.5 -184.5Q8 -143 8 -78Q8 -29 48 6Q82 37 135 49Q133 52 130 55Q110 78 110 107Q110 134 129 156Q144 173 170 187Q134 199 106 224Q50 274 50 350Q50 425 106 474Q162 523 247 523Q284 523 316 512H509V446H407Q438 404 438 350Q438 273 384.5 224Q331 175 247 175ZM121 -4Q89 -29 89 -66Q89 -110 130.5 -134Q172 -158 245 -158Q322 -158 371.5 -131Q421 -104 421 -58Q421 -32 400 -16.5Q379 -1 329 7L193 26Q148 16 121 -4ZM247 239Q296 239 326.5 269Q357 299 357 350Q357 399 326.5 428.5Q296 458 247 458Q197 458 165.5 428.5Q134 399 134 350Q134 299 165.5 269Q197 239 247 239ZM303 584H211Q211 638 240.5 693.5Q270 749 309 773H373Q342 740 322.5 688Q303 636 303 584Z" glyph-name="uni0123" horiz-adv-x="525" unicode="&#291;" /><glyph d="M194 0H103V700H194V380L485 700H594L287 372L620 0H508L194 349ZM271 -37H362Q362 -92 333 -147.5Q304 -203 265 -226H200Q231 -194 251 -141.5Q271 -89 271 -37Z" glyph-name="uni0136" horiz-adv-x="623" unicode="&#310;" /><glyph d="M181 0H93V762H181V296L402 512H511L272 285L535 0H426L181 264ZM254 -37H345Q345 -92 316 -147.5Q287 -203 248 -226H183Q214 -194 234 -141.5Q254 -89 254 -37Z" glyph-name="uni0137" horiz-adv-x="541" unicode="&#311;" /><glyph d="M194 700V77H504V0H103V700ZM257 -37H348Q348 -92 319 -147.5Q290 -203 251 -226H186Q217 -194 237 -141.5Q257 -89 257 -37Z" glyph-name="uni013B" horiz-adv-x="552" unicode="&#315;" /><glyph d="M181 0H93V762H181ZM91 -37H182Q182 -92 153 -147.5Q124 -203 85 -226H20Q51 -194 71 -141.5Q91 -89 91 -37Z" glyph-name="uni013C" horiz-adv-x="274" unicode="&#316;" /><glyph d="M614 0H535L192 551H188V0H103V700H193L525 158H529V700H614ZM318 -37H409Q409 -92 380 -147.5Q351 -203 312 -226H247Q278 -194 298 -141.5Q318 -89 318 -37Z" glyph-name="uni0145" horiz-adv-x="718" unicode="&#325;" /><glyph d="M181 457Q217 488 258 505.5Q299 523 339 523Q411 523 450 478Q489 433 489 350V0H401V336Q401 394 378 421Q355 448 307 448Q275 448 245 437Q215 426 181 400V0H93V512H181V457ZM245 -37H336Q336 -92 307 -147.5Q278 -203 239 -226H174Q205 -194 225 -141.5Q245 -89 245 -37Z" glyph-name="uni0146" horiz-adv-x="576" unicode="&#326;" /><glyph d="M406 308 622 0H515L319 286H193V0H103V700H292Q414 700 481 646.5Q548 593 548 495Q548 431 510 382Q472 333 406 308ZM293 623H193V363H346Q398 377 426.5 411Q455 445 455 495Q455 555 412 589Q369 623 293 623ZM293 -37H384Q384 -92 355 -147.5Q326 -203 287 -226H222Q253 -194 273 -141.5Q293 -89 293 -37Z" glyph-name="uni0156" horiz-adv-x="640" unicode="&#342;" /><glyph d="M181 356V0H93V512H181V425Q228 483 274.5 504Q321 525 374 517V424Q319 437 269.5 419.5Q220 402 181 356ZM89 -37H180Q180 -92 151 -147.5Q122 -203 83 -226H18Q49 -194 69 -141.5Q89 -89 89 -37Z" glyph-name="uni0157" horiz-adv-x="402" unicode="&#343;" /><glyph d="M364 -129Q364 -172 328.5 -199Q293 -226 239 -226Q207 -226 182 -219.5Q157 -213 139 -201V-143Q164 -158 187 -164.5Q210 -171 236 -171Q266 -171 283.5 -159.5Q301 -148 301 -129Q301 -109 277 -99Q253 -89 205 -89L236 -11Q184 -9 129 6Q69 23 37 50V141Q80 106 135.5 86.5Q191 67 245 67Q323 67 366.5 99.5Q410 132 410 189Q410 228 381.5 257Q353 286 257 326Q201 349 174.5 363Q148 377 130 392Q98 417 83 447.5Q68 478 68 516Q68 601 133.5 656Q199 711 296 711Q344 711 386.5 699Q429 687 467 663V574Q427 604 384.5 619Q342 634 299 634Q235 634 196.5 603Q158 572 158 521Q158 488 184 463Q210 438 299 402Q359 377 387.5 361.5Q416 346 436 329Q469 302 485 268.5Q501 235 501 193Q501 103 430 46Q370 -2 280 -9L266 -48Q314 -54 339 -75Q364 -96 364 -129Z" glyph-name="uni015E" horiz-adv-x="550" unicode="&#350;" /><glyph d="M302 -129Q302 -172 266.5 -199Q231 -226 177 -226Q145 -226 120 -219.5Q95 -213 77 -201V-143Q102 -158 125 -164.5Q148 -171 174 -171Q204 -171 221.5 -159.5Q239 -148 239 -129Q239 -109 215 -99Q191 -89 143 -89L175 -10Q146 -7 118 0Q75 10 43 29V115Q79 89 120 76Q161 63 206 63Q257 63 287.5 83Q318 103 318 137Q318 162 298.5 180Q279 198 214 223Q168 240 146.5 251Q125 262 110 274Q86 294 74.5 319Q63 344 63 376Q63 440 113 481.5Q163 523 240 523Q276 523 307.5 515Q339 507 371 489V408Q341 429 309.5 439.5Q278 450 244 450Q200 450 173.5 430.5Q147 411 147 379Q147 354 166.5 336Q186 318 252 294Q297 277 318.5 266.5Q340 256 355 243Q379 224 391 199Q403 174 403 143Q403 74 347 31Q295 -8 218 -11L204 -48Q252 -54 277 -75Q302 -96 302 -129Z" glyph-name="uni015F" horiz-adv-x="450" unicode="&#351;" /><glyph d="M333 421 327 390H465L450 320H105L121 390H241L247 424Q270 543 328.5 606Q387 669 475 669Q494 669 512.5 666Q531 663 546 657V585Q531 589 515 591Q499 593 480 593Q423 593 386 550Q349 507 333 421ZM185 115 207 229H296L272 112Q250 -8 192.5 -70Q135 -132 47 -132Q28 -132 10 -128.5Q-8 -125 -23 -119V-48Q-8 -52 6.5 -54Q21 -56 42 -56Q99 -56 134 -13.5Q169 29 185 115Z" glyph-name="uni0192" horiz-adv-x="589" unicode="&#402;" /><glyph d="M245 -11Q189 -11 129 6Q69 23 37 50V141Q80 106 135.5 86.5Q191 67 245 67Q323 67 366.5 99.5Q410 132 410 189Q410 228 381.5 257Q353 286 257 326Q201 349 174.5 363Q148 377 130 392Q98 417 83 447.5Q68 478 68 516Q68 601 133.5 656Q199 711 296 711Q344 711 386.5 699Q429 687 467 663V574Q427 604 384.5 619Q342 634 299 634Q235 634 196.5 603Q158 572 158 521Q158 488 184 463Q210 438 299 402Q359 377 387.5 361.5Q416 346 436 329Q469 302 485 268.5Q501 235 501 193Q501 103 430 46Q359 -11 245 -11ZM217 -37H308Q308 -92 279 -147.5Q250 -203 211 -226H146Q177 -194 197 -141.5Q217 -89 217 -37Z" glyph-name="uni0218" horiz-adv-x="550" unicode="&#536;" /><glyph d="M206 -11Q161 -11 118 -0.5Q75 10 43 29V115Q79 89 120 76Q161 63 206 63Q257 63 287.5 83Q318 103 318 137Q318 162 298.5 180Q279 198 214 223Q168 240 146.5 251Q125 262 110 274Q86 294 74.5 319Q63 344 63 376Q63 440 113 481.5Q163 523 240 523Q276 523 307.5 515Q339 507 371 489V408Q341 429 309.5 439.5Q278 450 244 450Q200 450 173.5 430.5Q147 411 147 379Q147 354 166.5 336Q186 318 252 294Q297 277 318.5 266.5Q340 256 355 243Q379 224 391 199Q403 174 403 143Q403 74 347 31.5Q291 -11 206 -11ZM174 -37H265Q265 -92 236 -147.5Q207 -203 168 -226H103Q134 -194 154 -141.5Q174 -89 174 -37Z" glyph-name="uni0219" horiz-adv-x="450" unicode="&#537;" /><glyph d="M253 623H33V700H565V623H344V0H253ZM253 -37H344Q344 -92 315 -147.5Q286 -203 247 -226H182Q213 -194 233 -141.5Q253 -89 253 -37Z" glyph-name="uni021A" horiz-adv-x="599" unicode="&#538;" /><glyph d="M30 441V512H111V634H199V512H371V441H199V147Q199 106 219 85Q239 64 279 64Q307 64 330 69Q353 74 386 87V15Q357 2 327.5 -4.5Q298 -11 266 -11Q191 -11 151 28Q111 67 111 141V441ZM209 -37H300Q300 -92 271 -147.5Q242 -203 203 -226H138Q169 -194 189 -141.5Q209 -89 209 -37Z" glyph-name="uni021B" horiz-adv-x="425" unicode="&#539;" /><glyph d="M93 14V512H181V7Q181 -55 158.5 -109Q136 -163 89 -215H-11Q40 -162 66.5 -103.5Q93 -45 93 14Z" glyph-name="uni0237" horiz-adv-x="274" unicode="&#567;" /><glyph d="M280 540H167V372H280Q351 372 384 393Q417 414 417 458Q417 503 386.5 521.5Q356 540 280 540ZM455 213Q455 260 421.5 284Q388 308 322 308H167V121H322Q390 121 422.5 143.5Q455 166 455 213ZM546 209Q546 133 491 92Q436 51 334 51H324V-123H248V51H82V609H248V762H324V609Q416 604 461 569.5Q506 535 506 469Q506 424 473.5 391Q441 358 392 349Q465 340 505.5 303.5Q546 267 546 209Z" glyph-name="uni0E3F" horiz-adv-x="589" unicode="&#3647;" /><glyph d="M390 274V-132H348Q233 -132 163.5 -94Q94 -56 94 8Q94 56 128.5 86Q163 116 218 116Q231 116 243 114Q255 112 265 108V57Q259 59 248.5 60Q238 61 230 61Q200 61 183 48Q166 35 166 11Q166 -23 207 -45Q248 -67 307 -69V274H144V337H307V344Q307 398 269.5 428Q232 458 149 469Q149 554 213 611.5Q277 669 372 669Q413 669 450.5 660Q488 651 521 633V562Q484 579 447.5 587.5Q411 596 373 596Q317 596 279.5 573Q242 550 233 511Q305 502 347.5 458Q390 414 390 349V337H525V274Z" glyph-name="uni17DB" horiz-adv-x="589" unicode="&#6107;" /><glyph d="M343 -77H283L325 81Q303 83 284.5 86Q266 89 250 94L205 -77H144L195 117Q136 149 104 201.5Q72 254 72 320Q72 413 135.5 478Q199 543 302 557L346 725H407L363 559Q379 558 399 554Q419 550 438 544L485 725H546L475 454Q441 469 411.5 475.5Q382 482 353 482Q267 482 214 438Q161 394 161 320Q161 247 214 202.5Q267 158 353 158Q385 158 421.5 167Q458 176 492 192V113Q473 103 444 95Q415 87 385 83Z" glyph-name="uni20A1" horiz-adv-x="589" unicode="&#8353;" /><glyph d="M292 385 232 0H151L123 216H5V275H115L104 363H5V422H96L66 658H146L199 133H205L262 500H330L386 133H393L446 658H523L493 422H584V363H485L474 275H584V216H467L439 0H358L297 385Z" glyph-name="uni20A9" horiz-adv-x="589" unicode="&#8361;" /><glyph d="M212 658Q315 658 360.5 613Q406 568 406 466V162H340V459Q340 537 312 566.5Q284 596 209 596H114V0H46V658ZM194 479H260V62H355Q430 62 458 91.5Q486 121 486 199V658H554V192Q554 90 508 45Q462 0 358 0H194Z" glyph-name="uni20AA" horiz-adv-x="589" unicode="&#8362;" /><glyph d="M274 182Q308 182 340 196Q372 210 403 239V357Q383 371 352 379.5Q321 388 286 388Q224 388 190.5 360Q157 332 157 280Q157 235 189 208.5Q221 182 274 182ZM403 128V184Q373 154 333.5 137Q294 120 252 120Q176 120 125.5 164.5Q75 209 75 280Q75 357 132 404Q189 451 275 451Q310 451 344 441.5Q378 432 403 416V529H182V590H403V658H480V590H572V529H480V128ZM485 0H95V59H485Z" glyph-name="uni20AB" horiz-adv-x="589" unicode="&#8363;" /><glyph d="M536 383V306H342L571 0H469L224 343L447 658H545L338 383ZM197 658V0H113V306H18V383H113V658Z" glyph-name="uni20AD" horiz-adv-x="589" unicode="&#8365;" /><glyph d="M491 417 98 287V351L251 402V586H42V658H547V586H337V430L491 481ZM337 216V0H251V188L98 137V201L491 331V267Z" glyph-name="uni20AE" horiz-adv-x="589" unicode="&#8366;" /><glyph d="M378 430Q378 506 347.5 545.5Q317 585 257 585H217V275H257Q317 275 347.5 314Q378 353 378 430ZM258 202H217V0H136V321H14V384H136V473H16V536H136V658H258Q327 658 373 627Q419 596 440 536H575V473H455Q456 456 456.5 447Q457 438 457 430Q457 418 456.5 406.5Q456 395 454 384H575V321H439Q418 263 372 232.5Q326 202 258 202Z" glyph-name="uni20B1" horiz-adv-x="589" unicode="&#8369;" /><glyph d="M553 434V372H38V434H376Q387 448 393.5 466.5Q400 485 400 503Q400 549 370.5 572.5Q341 596 284 596Q241 596 197.5 583Q154 570 118 546V624Q152 645 197.5 657Q243 669 289 669Q380 669 430 627.5Q480 586 480 509Q480 490 474 470Q468 450 457 434ZM503 123V45Q474 20 421 4.5Q368 -11 319 -11Q227 -11 172.5 34.5Q118 80 118 157Q118 174 122 191.5Q126 209 134 225H38V286H553V225H213Q206 211 202 195.5Q198 180 198 163Q198 115 230.5 88.5Q263 62 324 62Q374 62 420.5 77.5Q467 93 503 123Z" glyph-name="uni20B4" horiz-adv-x="589" unicode="&#8372;" /><glyph d="M248 432H42V504H547V432H340V0H248ZM547 586H42V658H547Z" glyph-name="uni20B8" horiz-adv-x="589" unicode="&#8376;" /><glyph d="M290 270 515 0H410L196 251H42L66 315H227Q275 327 304.5 355Q334 383 343 423H42L66 486H344Q334 537 287.5 565.5Q241 594 169 594H43L67 658H552L528 594H353Q385 575 403.5 547.5Q422 520 427 486H552L528 423H426Q418 370 382.5 330.5Q347 291 290 270Z" glyph-name="uni20B9" horiz-adv-x="589" unicode="&#8377;" /><glyph d="M303 -136Q303 -93 336 -52Q357 -26 393 1V55Q357 23 316.5 6Q276 -11 236 -11Q165 -11 126 34.5Q87 80 87 162V512H175V181Q175 120 197.5 92Q220 64 267 64Q299 64 330 76Q361 88 393 114V512H481V0H461Q413 -34 392 -63Q370 -93 370 -123Q370 -143 383.5 -154.5Q397 -166 420 -166Q438 -166 457 -161Q476 -156 498 -145V-201Q481 -213 457 -219.5Q433 -226 407 -226Q362 -226 332.5 -200.5Q303 -175 303 -136Z" glyph-name="uogonek" horiz-adv-x="573" unicode="&#371;" /><glyph d="M481 0H393V55Q357 23 316.5 6Q276 -11 236 -11Q165 -11 126 34.5Q87 80 87 162V512H175V181Q175 120 197.5 92Q220 64 267 64Q299 64 330 76Q361 88 393 114V512H481ZM284 645Q309 645 327 662.5Q345 680 345 705Q345 730 327 747.5Q309 765 284 765Q259 765 241 747.5Q223 730 223 705Q223 680 241 662.5Q259 645 284 645ZM284 817Q330 817 363 784Q396 751 396 705Q396 659 363 626.5Q330 594 284 594Q238 594 205 626.5Q172 659 172 705Q172 751 205 784Q238 817 284 817Z" glyph-name="uring" horiz-adv-x="573" unicode="&#367;" /><glyph d="M481 0H393V55Q357 23 316.5 6Q276 -11 236 -11Q165 -11 126 34.5Q87 80 87 162V512H175V181Q175 120 197.5 92Q220 64 267 64Q299 64 330 76Q361 88 393 114V512H481ZM350 596Q333 596 315 607.5Q297 619 267 653Q244 680 233 687.5Q222 695 213 695Q192 695 177 669.5Q162 644 156 596H101Q103 667 136.5 717.5Q170 768 217 768Q234 768 251.5 757Q269 746 300 711Q322 685 333 677Q344 669 354 669Q375 669 390 694.5Q405 720 411 768H466Q464 696 430.5 646Q397 596 350 596Z" glyph-name="utilde" horiz-adv-x="573" unicode="&#361;" /><glyph d="M498 512 303 0H221L26 512H118L263 101H266L412 512Z" glyph-name="v" horiz-adv-x="524" unicode="v" /><glyph d="M516 118 622 512H707L553 0H479L367 387H364L253 0H180L26 512H114L224 118H227L334 512H401L512 118Z" glyph-name="w" horiz-adv-x="732" unicode="w" /><glyph d="M516 118 622 512H707L553 0H479L367 387H364L253 0H180L26 512H114L224 118H227L334 512H401L512 118ZM519 773 397 583H343L404 773Z" glyph-name="wacute" horiz-adv-x="732" unicode="&#7811;" /><glyph d="M516 118 622 512H707L553 0H479L367 387H364L253 0H180L26 512H114L224 118H227L334 512H401L512 118ZM212 583 316 773H413L517 583H459L364 712L271 583Z" glyph-name="wcircumflex" horiz-adv-x="732" unicode="&#373;" /><glyph d="M516 118 622 512H707L553 0H479L367 387H364L253 0H180L26 512H114L224 118H227L334 512H401L512 118ZM271 613Q246 613 229 630Q212 647 212 672Q212 697 229 714.5Q246 732 271 732Q296 732 313 714.5Q330 697 330 672Q330 647 313 630Q296 613 271 613ZM460 613Q435 613 418 630Q401 647 401 672Q401 697 418 714.5Q435 732 460 732Q485 732 502 714.5Q519 697 519 672Q519 647 502 630Q485 613 460 613Z" glyph-name="wdieresis" horiz-adv-x="732" unicode="&#7813;" /><glyph d="M516 118 622 512H707L553 0H479L367 387H364L253 0H180L26 512H114L224 118H227L334 512H401L512 118ZM334 773 394 583H341L219 773Z" glyph-name="wgrave" horiz-adv-x="732" unicode="&#7809;" /><glyph d="M504 0H404L264 202L120 0H26L217 263L39 512H138L267 326L398 512H492L314 265Z" glyph-name="x" horiz-adv-x="530" unicode="x" /><glyph d="M75 -221Q58 -221 43 -218.5Q28 -216 18 -211V-142Q30 -145 43 -147Q56 -149 71 -149Q121 -149 157 -112.5Q193 -76 221 4L26 512H119L264 108H268L411 512H498L302 -6Q258 -122 205 -171.5Q152 -221 75 -221Z" glyph-name="y" horiz-adv-x="524" unicode="y" /><glyph d="M75 -221Q58 -221 43 -218.5Q28 -216 18 -211V-142Q30 -145 43 -147Q56 -149 71 -149Q121 -149 157 -112.5Q193 -76 221 4L26 512H119L264 108H268L411 512H498L302 -6Q258 -122 205 -171.5Q152 -221 75 -221ZM401 773 279 583H225L286 773Z" glyph-name="yacute" horiz-adv-x="524" unicode="&#253;" /><glyph d="M75 -221Q58 -221 43 -218.5Q28 -216 18 -211V-142Q30 -145 43 -147Q56 -149 71 -149Q121 -149 157 -112.5Q193 -76 221 4L26 512H119L264 108H268L411 512H498L302 -6Q258 -122 205 -171.5Q152 -221 75 -221ZM111 583 215 773H312L416 583H358L263 712L170 583Z" glyph-name="ycircumflex" horiz-adv-x="524" unicode="&#375;" /><glyph d="M75 -221Q58 -221 43 -218.5Q28 -216 18 -211V-142Q30 -145 43 -147Q56 -149 71 -149Q121 -149 157 -112.5Q193 -76 221 4L26 512H119L264 108H268L411 512H498L302 -6Q258 -122 205 -171.5Q152 -221 75 -221ZM170 613Q145 613 128 630Q111 647 111 672Q111 697 128 714.5Q145 732 170 732Q195 732 212 714.5Q229 697 229 672Q229 647 212 630Q195 613 170 613ZM359 613Q334 613 317 630Q300 647 300 672Q300 697 317 714.5Q334 732 359 732Q384 732 401 714.5Q418 697 418 672Q418 647 401 630Q384 613 359 613Z" glyph-name="ydieresis" horiz-adv-x="524" unicode="&#255;" /><glyph d="M112 658 293 438 475 658H579L384 431H498V369H91V431H200L5 658ZM249 0V222H91V283H498V222H339V0Z" glyph-name="yen" horiz-adv-x="589" unicode="&#165;" /><glyph d="M75 -221Q58 -221 43 -218.5Q28 -216 18 -211V-142Q30 -145 43 -147Q56 -149 71 -149Q121 -149 157 -112.5Q193 -76 221 4L26 512H119L264 108H268L411 512H498L302 -6Q258 -122 205 -171.5Q152 -221 75 -221ZM247 773 307 583H254L132 773Z" glyph-name="ygrave" horiz-adv-x="524" unicode="&#7923;" /><glyph d="M160 71H445V0H52V52L319 441H57V512H428V460Z" glyph-name="z" horiz-adv-x="491" unicode="z" /><glyph d="M160 71H445V0H52V52L319 441H57V512H428V460ZM398 773 276 583H222L283 773Z" glyph-name="zacute" horiz-adv-x="491" unicode="&#378;" /><glyph d="M160 71H445V0H52V52L319 441H57V512H428V460ZM163 773 256 644 351 773H409L305 583H208L104 773Z" glyph-name="zcaron" horiz-adv-x="491" unicode="&#382;" /><glyph d="M160 71H445V0H52V52L319 441H57V512H428V460ZM257 613Q229 613 211 631Q193 649 193 677Q193 705 211 723.5Q229 742 257 742Q285 742 303 723.5Q321 705 321 677Q321 649 303 631Q285 613 257 613Z" glyph-name="zdotaccent" horiz-adv-x="491" unicode="&#380;" /><glyph d="M294 69Q367 69 406 137Q445 205 445 329Q445 453 406 521Q367 589 294 589Q221 589 182 521Q143 453 143 329Q143 205 182 137Q221 69 294 69ZM294 669Q405 669 471.5 575.5Q538 482 538 329Q538 176 471.5 82.5Q405 -11 294 -11Q183 -11 116.5 82.5Q50 176 50 329Q50 482 116.5 575.5Q183 669 294 669Z" glyph-name="zero" horiz-adv-x="589" unicode="0" /></font>
</defs>
</svg>
