<?xml version="1.0" standalone="no"?><!DOCTYPE svg PUBLIC "-//W3C//DTD SVG 1.1//EN" "http://www.w3.org/Graphics/SVG/1.1/DTD/svg11.dtd" ><svg version="1.1" xmlns="http://www.w3.org/2000/svg"><defs><font horiz-adv-x="0" id="font"><font-face ascent="1132" bbox="-77 -239 1209 982" cap-height="770" descent="-268" font-family="PayPal Sans Big Light" font-stretch="normal" font-style="normal" font-weight="300" units-per-em="1024" x-height="560" /><missing-glyph horiz-adv-x="257" /><glyph d="M470 315 344 618 217 315ZM664 0H601L492 262H195L85 0H24L320 700H370Z" glyph-name="A" horiz-adv-x="688" unicode="A" /><glyph d="M316 315H562V657ZM986 0H562V262H278L89 0H24L526 700H973V647H623V386H937V333H623V53H986Z" glyph-name="AE" horiz-adv-x="1062" unicode="&#198;" /><glyph d="M316 315H562V657ZM986 0H562V262H278L89 0H24L526 700H973V647H623V386H937V333H623V53H986ZM962 927 782 776H727L863 927Z" glyph-name="AEacute" horiz-adv-x="1062" unicode="&#508;" /><glyph d="M470 315 344 618 217 315ZM664 0H601L492 262H195L85 0H24L320 700H370ZM548 927 368 776H313L449 927Z" glyph-name="Aacute" horiz-adv-x="688" unicode="&#193;" /><glyph d="M470 315 344 618 217 315ZM664 0H601L492 262H195L85 0H24L320 700H370ZM344 776Q276 776 234.5 817.5Q193 859 193 927H240Q243 882 271 855Q299 828 344 828Q389 828 417.5 855Q446 882 448 927H496Q496 858 454.5 817Q413 776 344 776Z" glyph-name="Abreve" horiz-adv-x="688" unicode="&#258;" /><glyph d="M470 315 344 618 217 315ZM664 0H601L492 262H195L85 0H24L320 700H370ZM188 776 317 927H372L500 776H455L344 870L233 776Z" glyph-name="Acircumflex" horiz-adv-x="688" unicode="&#194;" /><glyph d="M470 315 344 618 217 315ZM664 0H601L492 262H195L85 0H24L320 700H370ZM431 809Q412 809 398.5 822.5Q385 836 385 855Q385 873 398.5 886.5Q412 900 431 900Q449 900 462.5 886.5Q476 873 476 855Q476 836 462.5 822.5Q449 809 431 809ZM258 809Q239 809 225.5 822.5Q212 836 212 855Q212 873 225.5 886.5Q239 900 258 900Q276 900 289.5 886.5Q303 873 303 855Q303 836 289.5 822.5Q276 809 258 809Z" glyph-name="Adieresis" horiz-adv-x="688" unicode="&#196;" /><glyph d="M470 315 344 618 217 315ZM664 0H601L492 262H195L85 0H24L320 700H370ZM242 927 379 776H323L144 927Z" glyph-name="Agrave" horiz-adv-x="688" unicode="&#192;" /><glyph d="M470 315 344 618 217 315ZM664 0H601L492 262H195L85 0H24L320 700H370ZM496 852V802H193V852Z" glyph-name="Amacron" horiz-adv-x="688" unicode="&#256;" /><glyph d="M658 -186V-232Q647 -236 638 -237.5Q629 -239 618 -239Q578 -239 551.5 -214.5Q525 -190 525 -148Q525 -109 542.5 -74.5Q560 -40 601 0L492 262H194L85 0H24L320 700H370L664 0Q617 -37 596.5 -69Q576 -101 576 -139Q576 -163 589.5 -178Q603 -193 623 -193Q633 -193 640 -191.5Q647 -190 658 -186ZM470 315 344 618 217 315Z" glyph-name="Aogonek" horiz-adv-x="688" unicode="&#260;" /><glyph d="M457 776Q457 729 423 695Q405 676 383 668L664 0H601L492 262H195L85 0H24L306 667Q283 676 264 695Q231 729 231 776Q231 822 264.5 855.5Q298 889 344 889Q390 889 423.5 855.5Q457 822 457 776ZM470 315 344 618 217 315ZM277 776Q277 747 296.5 726.5Q316 706 344 706Q372 706 392 726.5Q412 747 412 776Q412 804 392 824.5Q372 845 344 845Q317 845 297 824.5Q277 804 277 776Z" glyph-name="Aring" horiz-adv-x="688" unicode="&#197;" /><glyph d="M470 315 344 618 217 315ZM664 0H601L492 262H195L85 0H24L320 700H370ZM413 776Q396 776 378.5 787Q361 798 331 834Q305 863 292 872Q279 881 268 881Q248 881 236 858Q224 835 216 776H171Q174 848 202 893Q230 938 275 938Q292 938 309.5 927Q327 916 358 880Q383 851 395.5 842.5Q408 834 419 834Q440 834 452 858Q464 882 471 938H517Q514 865 486 820.5Q458 776 413 776Z" glyph-name="Atilde" horiz-adv-x="688" unicode="&#195;" /><glyph d="M520 517Q520 464 487 422.5Q454 381 402 367Q477 357 521.5 310.5Q566 264 566 196Q566 104 501.5 52Q437 0 325 0H103V700H289Q399 700 459.5 652.5Q520 605 520 517ZM284 646H164V385H284Q370 385 415.5 419.5Q461 454 461 519Q461 583 417 614.5Q373 646 284 646ZM507 197Q507 261 460.5 297Q414 333 331 333H164V54H331Q413 54 460 92Q507 130 507 197Z" glyph-name="B" horiz-adv-x="621" unicode="B" /><glyph d="M418 656Q282 656 194.5 572.5Q107 489 107 350Q107 211 194.5 128Q282 45 418 45Q458 45 490 51Q522 57 553 71V13Q521 0 488.5 -5.5Q456 -11 418 -11Q255 -11 149.5 88.5Q44 188 44 350Q44 511 150 611Q256 711 418 711Q455 711 487.5 705.5Q520 700 553 688V629Q521 643 488.5 649.5Q456 656 418 656Z" glyph-name="C" horiz-adv-x="605" unicode="C" /><glyph d="M418 656Q282 656 194.5 572.5Q107 489 107 350Q107 211 194.5 128Q282 45 418 45Q458 45 490 51Q522 57 553 71V13Q521 0 488.5 -5.5Q456 -11 418 -11Q255 -11 149.5 88.5Q44 188 44 350Q44 511 150 611Q256 711 418 711Q455 711 487.5 705.5Q520 700 553 688V629Q521 643 488.5 649.5Q456 656 418 656ZM602 927 422 776H367L503 927Z" glyph-name="Cacute" horiz-adv-x="605" unicode="&#262;" /><glyph d="M418 656Q282 656 194.5 572.5Q107 489 107 350Q107 211 194.5 128Q282 45 418 45Q458 45 490 51Q522 57 553 71V13Q521 0 488.5 -5.5Q456 -11 418 -11Q255 -11 149.5 88.5Q44 188 44 350Q44 511 150 611Q256 711 418 711Q455 711 487.5 705.5Q520 700 553 688V629Q521 643 488.5 649.5Q456 656 418 656ZM554 927 426 776H371L242 927H287L398 834L509 927Z" glyph-name="Ccaron" horiz-adv-x="605" unicode="&#268;" /><glyph d="M472 -145Q472 -186 436.5 -212.5Q401 -239 351 -239Q321 -239 295.5 -233Q270 -227 251 -215V-165Q274 -180 297.5 -187.5Q321 -195 351 -195Q383 -195 402 -182Q421 -169 421 -148Q421 -121 396 -108.5Q371 -96 318 -96L344 -5Q230 12 149 88Q44 188 44 350Q44 511 150 611Q256 711 418 711Q455 711 487.5 705.5Q520 700 553 688V629Q521 643 488.5 649.5Q456 656 418 656Q282 656 194.5 572.5Q107 489 107 350Q107 211 194.5 128Q282 45 418 45Q458 45 490 51Q522 57 553 71V13Q521 0 488.5 -5.5Q456 -11 418 -11Q400 -11 383 -10L369 -56Q418 -63 445 -86.5Q472 -110 472 -145Z" glyph-name="Ccedilla" horiz-adv-x="605" unicode="&#199;" /><glyph d="M418 656Q282 656 194.5 572.5Q107 489 107 350Q107 211 194.5 128Q282 45 418 45Q458 45 490 51Q522 57 553 71V13Q521 0 488.5 -5.5Q456 -11 418 -11Q255 -11 149.5 88.5Q44 188 44 350Q44 511 150 611Q256 711 418 711Q455 711 487.5 705.5Q520 700 553 688V629Q521 643 488.5 649.5Q456 656 418 656ZM242 776 371 927H426L554 776H509L398 870L287 776Z" glyph-name="Ccircumflex" horiz-adv-x="605" unicode="&#264;" /><glyph d="M418 656Q282 656 194.5 572.5Q107 489 107 350Q107 211 194.5 128Q282 45 418 45Q458 45 490 51Q522 57 553 71V13Q521 0 488.5 -5.5Q456 -11 418 -11Q255 -11 149.5 88.5Q44 188 44 350Q44 511 150 611Q256 711 418 711Q455 711 487.5 705.5Q520 700 553 688V629Q521 643 488.5 649.5Q456 656 418 656ZM398 809Q379 809 366 822.5Q353 836 353 855Q353 873 366.5 886.5Q380 900 398 900Q417 900 430.5 886.5Q444 873 444 855Q444 836 430.5 822.5Q417 809 398 809Z" glyph-name="Cdotaccent" horiz-adv-x="605" unicode="&#266;" /><glyph d="M304 0H103V701H304Q470 701 574.5 605Q679 509 679 352Q679 194 574.5 97Q470 0 304 0ZM164 647V55H301Q441 55 528.5 136Q616 217 616 352Q616 486 529 566.5Q442 647 301 647Z" glyph-name="D" horiz-adv-x="723" unicode="D" /><glyph d="M304 0H103V701H304Q470 701 574.5 605Q679 509 679 352Q679 194 574.5 97Q470 0 304 0ZM164 647V55H301Q441 55 528.5 136Q616 217 616 352Q616 486 529 566.5Q442 647 301 647ZM488 927 360 776H305L176 927H221L332 834L443 927Z" glyph-name="Dcaron" horiz-adv-x="723" unicode="&#270;" /><glyph d="M688 352Q688 194 583.5 97Q479 0 313 0H112V330H30V383H112V701H313Q479 701 583.5 605Q688 509 688 352ZM173 330V55H310Q450 55 537.5 136Q625 217 625 352Q625 486 538 566.5Q451 647 310 647H173V383H349V330Z" glyph-name="Dcroat" horiz-adv-x="732" unicode="&#272;" /><glyph d="M537 0H103V700H525V646H164V386H489V333H164V54H537Z" glyph-name="E" horiz-adv-x="613" unicode="E" /><glyph d="M537 0H103V700H525V646H164V386H489V333H164V54H537ZM496 927 316 776H261L397 927Z" glyph-name="Eacute" horiz-adv-x="613" unicode="&#201;" /><glyph d="M537 0H103V700H525V646H164V386H489V333H164V54H537ZM318 776Q250 776 208.5 817.5Q167 859 167 927H214Q217 882 245 855Q273 828 318 828Q363 828 391.5 855Q420 882 422 927H470Q470 858 428.5 817Q387 776 318 776Z" glyph-name="Ebreve" horiz-adv-x="613" unicode="&#276;" /><glyph d="M537 0H103V700H525V646H164V386H489V333H164V54H537ZM474 927 346 776H291L162 927H207L318 834L429 927Z" glyph-name="Ecaron" horiz-adv-x="613" unicode="&#282;" /><glyph d="M537 0H103V700H525V646H164V386H489V333H164V54H537ZM162 776 291 927H346L474 776H429L318 870L207 776Z" glyph-name="Ecircumflex" horiz-adv-x="613" unicode="&#202;" /><glyph d="M537 0H103V700H525V646H164V386H489V333H164V54H537ZM405 809Q386 809 372.5 822.5Q359 836 359 855Q359 873 372.5 886.5Q386 900 405 900Q423 900 436.5 886.5Q450 873 450 855Q450 836 436.5 822.5Q423 809 405 809ZM232 809Q213 809 199.5 822.5Q186 836 186 855Q186 873 199.5 886.5Q213 900 232 900Q250 900 263.5 886.5Q277 873 277 855Q277 836 263.5 822.5Q250 809 232 809Z" glyph-name="Edieresis" horiz-adv-x="613" unicode="&#203;" /><glyph d="M537 0H103V700H525V646H164V386H489V333H164V54H537ZM318 809Q299 809 286 822.5Q273 836 273 855Q273 873 286.5 886.5Q300 900 318 900Q337 900 350.5 886.5Q364 873 364 855Q364 836 350.5 822.5Q337 809 318 809Z" glyph-name="Edotaccent" horiz-adv-x="613" unicode="&#278;" /><glyph d="M537 0H103V700H525V646H164V386H489V333H164V54H537ZM244 927 381 776H325L146 927Z" glyph-name="Egrave" horiz-adv-x="613" unicode="&#200;" /><glyph d="M537 0H103V700H525V646H164V386H489V333H164V54H537ZM470 852V802H167V852Z" glyph-name="Emacron" horiz-adv-x="613" unicode="&#274;" /><glyph d="M562 -228H495Q539 -179 558.5 -125.5Q578 -72 581 7L162 611V0H103V700H171L581 102V700H640V5Q638 -71 622.5 -121Q607 -171 562 -228Z" glyph-name="Eng" horiz-adv-x="743" unicode="&#330;" /><glyph d="M338 -148Q338 -105 361 -66Q377 -38 414 0H103V700H525V646H164V386H489V333H164V54H537V0H464Q422 -46 406 -75Q389 -107 389 -139Q389 -163 403 -178Q417 -193 437 -193Q447 -193 454 -191.5Q461 -190 472 -186V-232Q460 -236 451 -237.5Q442 -239 432 -239Q391 -239 364.5 -214.5Q338 -190 338 -148Z" glyph-name="Eogonek" horiz-adv-x="613" unicode="&#280;" /><glyph d="M688 352Q688 194 583.5 97Q479 0 313 0H112V330H30V383H112V701H313Q479 701 583.5 605Q688 509 688 352ZM173 330V55H310Q450 55 537.5 136Q625 217 625 352Q625 486 538 566.5Q451 647 310 647H173V383H349V330Z" glyph-name="Eth" horiz-adv-x="732" unicode="&#208;" /><glyph d="M432 438 413 387H36V438H98Q120 566 202.5 638.5Q285 711 407 711Q442 711 471.5 705.5Q501 700 531 688V629Q501 643 471.5 649.5Q442 656 407 656Q310 656 244 599Q178 542 158 438ZM531 71V13Q501 0 472 -5.5Q443 -11 407 -11Q286 -11 204 60Q122 131 99 257H36V308H395L377 257H159Q180 155 245 100Q310 45 407 45Q444 45 473 51Q502 57 531 71Z" glyph-name="Euro" horiz-adv-x="569" unicode="&#8364;" /><glyph d="M164 333V0H103V700H514V646H164V386H482V333Z" glyph-name="F" horiz-adv-x="578" unicode="F" /><glyph d="M426 655Q290 655 198.5 568.5Q107 482 107 347Q107 207 193.5 126Q280 45 422 45Q455 45 486.5 48Q518 51 545 56V302H604V11Q567 1 516.5 -5Q466 -11 422 -11Q256 -11 150 87.5Q44 186 44 347Q44 504 154.5 607.5Q265 711 426 711Q476 711 522 703Q568 695 603 681V622Q570 637 522 646Q474 655 426 655Z" glyph-name="G" horiz-adv-x="666" unicode="G" /><glyph d="M426 655Q290 655 198.5 568.5Q107 482 107 347Q107 207 193.5 126Q280 45 422 45Q455 45 486.5 48Q518 51 545 56V302H604V11Q567 1 516.5 -5Q466 -11 422 -11Q256 -11 150 87.5Q44 186 44 347Q44 504 154.5 607.5Q265 711 426 711Q476 711 522 703Q568 695 603 681V622Q570 637 522 646Q474 655 426 655ZM409 776Q341 776 299.5 817.5Q258 859 258 927H305Q308 882 336 855Q364 828 409 828Q454 828 482.5 855Q511 882 513 927H561Q561 858 519.5 817Q478 776 409 776Z" glyph-name="Gbreve" horiz-adv-x="666" unicode="&#286;" /><glyph d="M426 655Q290 655 198.5 568.5Q107 482 107 347Q107 207 193.5 126Q280 45 422 45Q455 45 486.5 48Q518 51 545 56V302H604V11Q567 1 516.5 -5Q466 -11 422 -11Q256 -11 150 87.5Q44 186 44 347Q44 504 154.5 607.5Q265 711 426 711Q476 711 522 703Q568 695 603 681V622Q570 637 522 646Q474 655 426 655ZM254 776 383 927H438L566 776H521L410 870L299 776Z" glyph-name="Gcircumflex" horiz-adv-x="666" unicode="&#284;" /><glyph d="M426 655Q290 655 198.5 568.5Q107 482 107 347Q107 207 193.5 126Q280 45 422 45Q455 45 486.5 48Q518 51 545 56V302H604V11Q567 1 516.5 -5Q466 -11 422 -11Q256 -11 150 87.5Q44 186 44 347Q44 504 154.5 607.5Q265 711 426 711Q476 711 522 703Q568 695 603 681V622Q570 637 522 646Q474 655 426 655ZM409 809Q390 809 377 822.5Q364 836 364 855Q364 873 377.5 886.5Q391 900 409 900Q428 900 441.5 886.5Q455 873 455 855Q455 836 441.5 822.5Q428 809 409 809Z" glyph-name="Gdotaccent" horiz-adv-x="666" unicode="&#288;" /><glyph d="M677 0H616V333H164V0H103V701H164V386H616V701H677Z" glyph-name="H" horiz-adv-x="780" unicode="H" /><glyph d="M173 475V337H625V475ZM625 284H173V0H112V475H30V528H112V700H173V528H625V700H686V528H768V475H686V0H625Z" glyph-name="Hbar" horiz-adv-x="798" unicode="&#294;" /><glyph d="M677 0H616V333H164V0H103V701H164V386H616V701H677ZM234 776 363 927H418L546 776H501L390 870L279 776Z" glyph-name="Hcircumflex" horiz-adv-x="780" unicode="&#292;" /><glyph d="M164 0H103V700H164Z" glyph-name="I" horiz-adv-x="267" unicode="I" /><glyph d="M164 0H103V700H164ZM346 927 166 776H111L247 927Z" glyph-name="Iacute" horiz-adv-x="267" unicode="&#205;" /><glyph d="M164 0H103V700H164ZM133 776Q65 776 23.5 817.5Q-18 859 -18 927H29Q32 882 60 855Q88 828 133 828Q178 828 206.5 855Q235 882 237 927H285Q285 858 243.5 817Q202 776 133 776Z" glyph-name="Ibreve" horiz-adv-x="267" unicode="&#300;" /><glyph d="M164 0H103V700H164ZM-23 776 106 927H161L289 776H244L133 870L22 776Z" glyph-name="Icircumflex" horiz-adv-x="267" unicode="&#206;" /><glyph d="M164 0H103V700H164ZM220 809Q201 809 187.5 822.5Q174 836 174 855Q174 873 187.5 886.5Q201 900 220 900Q238 900 251.5 886.5Q265 873 265 855Q265 836 251.5 822.5Q238 809 220 809ZM47 809Q28 809 14.5 822.5Q1 836 1 855Q1 873 14.5 886.5Q28 900 47 900Q65 900 78.5 886.5Q92 873 92 855Q92 836 78.5 822.5Q65 809 47 809Z" glyph-name="Idieresis" horiz-adv-x="267" unicode="&#207;" /><glyph d="M164 0H103V700H164ZM133 809Q114 809 101 822.5Q88 836 88 855Q88 873 101.5 886.5Q115 900 133 900Q152 900 165.5 886.5Q179 873 179 855Q179 836 165.5 822.5Q152 809 133 809Z" glyph-name="Idotaccent" horiz-adv-x="267" unicode="&#304;" /><glyph d="M164 0H103V700H164ZM21 927 158 776H102L-77 927Z" glyph-name="Igrave" horiz-adv-x="267" unicode="&#204;" /><glyph d="M164 0H103V700H164ZM285 852V802H-18V852Z" glyph-name="Imacron" horiz-adv-x="267" unicode="&#298;" /><glyph d="M26 -148Q26 -111 43 -77.5Q60 -44 103 0V700H164V0Q116 -39 96.5 -70Q77 -101 77 -139Q77 -163 91 -178Q105 -193 125 -193Q135 -193 142 -191.5Q149 -190 160 -186V-232Q148 -236 139 -237.5Q130 -239 120 -239Q79 -239 52.5 -214.5Q26 -190 26 -148Z" glyph-name="Iogonek" horiz-adv-x="267" unicode="&#302;" /><glyph d="M164 0H103V700H164ZM202 776Q185 776 167.5 787Q150 798 120 834Q94 863 81 872Q68 881 57 881Q37 881 25 858Q13 835 5 776H-40Q-37 848 -9 893Q19 938 64 938Q81 938 98.5 927Q116 916 147 880Q172 851 184.5 842.5Q197 834 208 834Q229 834 241 858Q253 882 260 938H306Q303 865 275 820.5Q247 776 202 776Z" glyph-name="Itilde" horiz-adv-x="267" unicode="&#296;" /><glyph d="M164 700V51Q164 -42 144 -105.5Q124 -169 73 -228H-3Q56 -166 79.5 -103Q103 -40 103 51V700Z" glyph-name="J" horiz-adv-x="267" unicode="J" /><glyph d="M164 700V51Q164 -42 144 -105.5Q124 -169 73 -228H-3Q56 -166 79.5 -103Q103 -40 103 51V700ZM-21 776 108 927H163L291 776H246L135 870L24 776Z" glyph-name="Jcircumflex" horiz-adv-x="267" unicode="&#308;" /><glyph d="M650 0H560L164 342V0H103V700H164V369L514 700H597L230 363Z" glyph-name="K" horiz-adv-x="666" unicode="K" /><glyph d="M103 0V700H164V54H515V0Z" glyph-name="L" horiz-adv-x="559" unicode="L" /><glyph d="M103 0V700H164V54H515V0ZM349 927 169 776H114L250 927Z" glyph-name="Lacute" horiz-adv-x="559" unicode="&#313;" /><glyph d="M103 0V700H164V54H515V0ZM395 450H353L378 702H448Z" glyph-name="Lcaron" horiz-adv-x="559" unicode="&#317;" /><glyph d="M103 0V700H164V54H515V0ZM415 351Q396 351 383 364.5Q370 378 370 397Q370 415 383.5 428.5Q397 442 415 442Q434 442 447.5 428.5Q461 415 461 397Q461 378 447.5 364.5Q434 351 415 351Z" glyph-name="Ldot" horiz-adv-x="559" unicode="&#319;" /><glyph d="M524 54V0H112V297L30 246V305L112 356V700H173V386L360 499V440L173 327V54Z" glyph-name="Lslash" horiz-adv-x="568" unicode="&#321;" /><glyph d="M664 612 460 89H413L209 612L123 0H65L166 700H234L438 171L639 700H708L809 0H750Z" glyph-name="M" horiz-adv-x="874" unicode="M" /><glyph d="M640 0H586L162 613V0H103V700H171L581 100V700H640Z" glyph-name="N" horiz-adv-x="743" unicode="N" /><glyph glyph-name="NULL" horiz-adv-x="0" /><glyph d="M640 0H586L162 613V0H103V700H171L581 100V700H640ZM576 927 396 776H341L477 927Z" glyph-name="Nacute" horiz-adv-x="743" unicode="&#323;" /><glyph d="M640 0H586L162 613V0H103V700H171L581 100V700H640ZM527 927 399 776H344L215 927H260L371 834L482 927Z" glyph-name="Ncaron" horiz-adv-x="743" unicode="&#327;" /><glyph d="M640 0H586L162 613V0H103V700H171L581 100V700H640ZM441 776Q424 776 406.5 787Q389 798 359 834Q333 863 320 872Q307 881 296 881Q276 881 264 858Q252 835 244 776H199Q202 848 230 893Q258 938 303 938Q320 938 337.5 927Q355 916 386 880Q411 851 423.5 842.5Q436 834 447 834Q468 834 480 858Q492 882 499 938H545Q542 865 514 820.5Q486 776 441 776Z" glyph-name="Ntilde" horiz-adv-x="743" unicode="&#209;" /><glyph d="M376 -11Q235 -11 139.5 91.5Q44 194 44 350Q44 506 139.5 608.5Q235 711 376 711Q517 711 612.5 608.5Q708 506 708 350Q708 194 612.5 91.5Q517 -11 376 -11ZM376 45Q495 45 570 130Q645 215 645 350Q645 485 570 570Q495 655 376 655Q257 655 182 570Q107 485 107 350Q107 215 182 130Q257 45 376 45Z" glyph-name="O" horiz-adv-x="752" unicode="O" /><glyph d="M983 0H419Q253 0 148.5 96Q44 192 44 350Q44 507 148.5 603.5Q253 700 419 700H970V647H620V386H935V333H620V53H983ZM559 53V647H422Q282 647 194.5 565.5Q107 484 107 350Q107 215 194.5 134Q282 53 422 53Z" glyph-name="OE" horiz-adv-x="1059" unicode="&#338;" /><glyph d="M376 -11Q235 -11 139.5 91.5Q44 194 44 350Q44 506 139.5 608.5Q235 711 376 711Q517 711 612.5 608.5Q708 506 708 350Q708 194 612.5 91.5Q517 -11 376 -11ZM376 45Q495 45 570 130Q645 215 645 350Q645 485 570 570Q495 655 376 655Q257 655 182 570Q107 485 107 350Q107 215 182 130Q257 45 376 45ZM580 927 400 776H345L481 927Z" glyph-name="Oacute" horiz-adv-x="752" unicode="&#211;" /><glyph d="M376 -11Q235 -11 139.5 91.5Q44 194 44 350Q44 506 139.5 608.5Q235 711 376 711Q517 711 612.5 608.5Q708 506 708 350Q708 194 612.5 91.5Q517 -11 376 -11ZM376 45Q495 45 570 130Q645 215 645 350Q645 485 570 570Q495 655 376 655Q257 655 182 570Q107 485 107 350Q107 215 182 130Q257 45 376 45ZM376 776Q308 776 266.5 817.5Q225 859 225 927H272Q275 882 303 855Q331 828 376 828Q421 828 449.5 855Q478 882 480 927H528Q528 858 486.5 817Q445 776 376 776Z" glyph-name="Obreve" horiz-adv-x="752" unicode="&#334;" /><glyph d="M376 -11Q235 -11 139.5 91.5Q44 194 44 350Q44 506 139.5 608.5Q235 711 376 711Q517 711 612.5 608.5Q708 506 708 350Q708 194 612.5 91.5Q517 -11 376 -11ZM376 45Q495 45 570 130Q645 215 645 350Q645 485 570 570Q495 655 376 655Q257 655 182 570Q107 485 107 350Q107 215 182 130Q257 45 376 45ZM220 776 349 927H404L532 776H487L376 870L265 776Z" glyph-name="Ocircumflex" horiz-adv-x="752" unicode="&#212;" /><glyph d="M376 -11Q235 -11 139.5 91.5Q44 194 44 350Q44 506 139.5 608.5Q235 711 376 711Q517 711 612.5 608.5Q708 506 708 350Q708 194 612.5 91.5Q517 -11 376 -11ZM376 45Q495 45 570 130Q645 215 645 350Q645 485 570 570Q495 655 376 655Q257 655 182 570Q107 485 107 350Q107 215 182 130Q257 45 376 45ZM463 809Q444 809 430.5 822.5Q417 836 417 855Q417 873 430.5 886.5Q444 900 463 900Q481 900 494.5 886.5Q508 873 508 855Q508 836 494.5 822.5Q481 809 463 809ZM290 809Q271 809 257.5 822.5Q244 836 244 855Q244 873 257.5 886.5Q271 900 290 900Q308 900 321.5 886.5Q335 873 335 855Q335 836 321.5 822.5Q308 809 290 809Z" glyph-name="Odieresis" horiz-adv-x="752" unicode="&#214;" /><glyph d="M376 -11Q235 -11 139.5 91.5Q44 194 44 350Q44 506 139.5 608.5Q235 711 376 711Q517 711 612.5 608.5Q708 506 708 350Q708 194 612.5 91.5Q517 -11 376 -11ZM376 45Q495 45 570 130Q645 215 645 350Q645 485 570 570Q495 655 376 655Q257 655 182 570Q107 485 107 350Q107 215 182 130Q257 45 376 45ZM274 927 411 776H355L176 927Z" glyph-name="Ograve" horiz-adv-x="752" unicode="&#210;" /><glyph d="M376 -11Q235 -11 139.5 91.5Q44 194 44 350Q44 506 139.5 608.5Q235 711 376 711Q517 711 612.5 608.5Q708 506 708 350Q708 194 612.5 91.5Q517 -11 376 -11ZM376 45Q495 45 570 130Q645 215 645 350Q645 485 570 570Q495 655 376 655Q257 655 182 570Q107 485 107 350Q107 215 182 130Q257 45 376 45ZM301 776H255L372 927H460ZM474 776H428L545 927H633Z" glyph-name="Ohungarumlaut" horiz-adv-x="752" unicode="&#336;" /><glyph d="M376 -11Q235 -11 139.5 91.5Q44 194 44 350Q44 506 139.5 608.5Q235 711 376 711Q517 711 612.5 608.5Q708 506 708 350Q708 194 612.5 91.5Q517 -11 376 -11ZM376 45Q495 45 570 130Q645 215 645 350Q645 485 570 570Q495 655 376 655Q257 655 182 570Q107 485 107 350Q107 215 182 130Q257 45 376 45ZM528 852V802H225V852Z" glyph-name="Omacron" horiz-adv-x="752" unicode="&#332;" /><glyph d="M376 655Q257 655 182 570Q107 485 107 350Q107 284 125.5 228.5Q144 173 180 132L537 601Q504 628 463 641.5Q422 655 376 655ZM376 45Q495 45 570 130Q645 215 645 350Q645 416 626.5 471.5Q608 527 572 568L214 99Q247 73 288.5 59Q330 45 376 45ZM708 350Q708 194 612.5 91.5Q517 -11 376 -11Q322 -11 272 6Q222 23 180 55L111 -36H52L145 86Q96 136 70 204Q44 272 44 350Q44 506 139.5 608.5Q235 711 376 711Q430 711 479.5 694.5Q529 678 571 646L641 738H701L607 615Q656 565 682 496.5Q708 428 708 350Z" glyph-name="Oslash" horiz-adv-x="752" unicode="&#216;" /><glyph d="M376 655Q257 655 182 570Q107 485 107 350Q107 284 125.5 228.5Q144 173 180 132L537 601Q504 628 463 641.5Q422 655 376 655ZM376 45Q495 45 570 130Q645 215 645 350Q645 416 626.5 471.5Q608 527 572 568L214 99Q247 73 288.5 59Q330 45 376 45ZM708 350Q708 194 612.5 91.5Q517 -11 376 -11Q322 -11 272 6Q222 23 180 55L111 -36H52L145 86Q96 136 70 204Q44 272 44 350Q44 506 139.5 608.5Q235 711 376 711Q430 711 479.5 694.5Q529 678 571 646L641 738H701L607 615Q656 565 682 496.5Q708 428 708 350ZM580 927 400 776H345L481 927Z" glyph-name="Oslashacute" horiz-adv-x="752" unicode="&#510;" /><glyph d="M376 -11Q235 -11 139.5 91.5Q44 194 44 350Q44 506 139.5 608.5Q235 711 376 711Q517 711 612.5 608.5Q708 506 708 350Q708 194 612.5 91.5Q517 -11 376 -11ZM376 45Q495 45 570 130Q645 215 645 350Q645 485 570 570Q495 655 376 655Q257 655 182 570Q107 485 107 350Q107 215 182 130Q257 45 376 45ZM445 776Q428 776 410.5 787Q393 798 363 834Q337 863 324 872Q311 881 300 881Q280 881 268 858Q256 835 248 776H203Q206 848 234 893Q262 938 307 938Q324 938 341.5 927Q359 916 390 880Q415 851 427.5 842.5Q440 834 451 834Q472 834 484 858Q496 882 503 938H549Q546 865 518 820.5Q490 776 445 776Z" glyph-name="Otilde" horiz-adv-x="752" unicode="&#213;" /><glyph d="M567 496Q567 404 500.5 348.5Q434 293 327 293H164V0H103V700H327Q435 700 501 644.5Q567 589 567 496ZM503 496Q503 565 454.5 605.5Q406 646 326 646H164V347H326Q406 347 454.5 387.5Q503 428 503 496Z" glyph-name="P" horiz-adv-x="607" unicode="P" /><glyph d="M600 -210Q504 -210 439 -158.5Q374 -107 350 -10Q217 0 130.5 101Q44 202 44 350Q44 506 139.5 608.5Q235 711 376 711Q517 711 612.5 608.5Q708 506 708 350Q708 205 624 104.5Q540 4 410 -9Q432 -83 481 -120.5Q530 -158 607 -158Q624 -158 638.5 -155.5Q653 -153 669 -148V-197Q654 -204 637.5 -207Q621 -210 600 -210ZM376 45Q495 45 570 130Q645 215 645 350Q645 485 570 570Q495 655 376 655Q257 655 182 570Q107 485 107 350Q107 215 182 130Q257 45 376 45Z" glyph-name="Q" horiz-adv-x="752" unicode="Q" /><glyph d="M290 646H164V353H350Q408 365 442 405.5Q476 446 476 505Q476 574 428.5 610Q381 646 290 646ZM394 314Q437 242 505 154Q573 66 637 0H558Q505 54 444.5 135Q384 216 332 301H164V0H103V700H289Q412 700 476.5 650Q541 600 541 505Q541 439 501 388Q461 337 394 314Z" glyph-name="R" horiz-adv-x="655" unicode="R" /><glyph d="M290 646H164V353H350Q408 365 442 405.5Q476 446 476 505Q476 574 428.5 610Q381 646 290 646ZM394 314Q437 242 505 154Q573 66 637 0H558Q505 54 444.5 135Q384 216 332 301H164V0H103V700H289Q412 700 476.5 650Q541 600 541 505Q541 439 501 388Q461 337 394 314ZM505 927 325 776H270L406 927Z" glyph-name="Racute" horiz-adv-x="655" unicode="&#340;" /><glyph d="M290 646H164V353H350Q408 365 442 405.5Q476 446 476 505Q476 574 428.5 610Q381 646 290 646ZM394 314Q437 242 505 154Q573 66 637 0H558Q505 54 444.5 135Q384 216 332 301H164V0H103V700H289Q412 700 476.5 650Q541 600 541 505Q541 439 501 388Q461 337 394 314ZM456 927 328 776H273L144 927H189L300 834L411 927Z" glyph-name="Rcaron" horiz-adv-x="655" unicode="&#344;" /><glyph d="M245 -11Q186 -11 124.5 6.5Q63 24 27 51V118Q77 81 131.5 62.5Q186 44 244 44Q327 44 376.5 81Q426 118 426 179Q426 209 412 233.5Q398 258 368 278Q352 289 330 300Q308 311 260 331Q201 355 174.5 369.5Q148 384 129 399Q96 424 80.5 455.5Q65 487 65 526Q65 606 129 658.5Q193 711 286 711Q335 711 376.5 701.5Q418 692 456 672V608Q412 634 373.5 645.5Q335 657 286 657Q214 657 170 622Q126 587 126 529Q126 487 157 455.5Q188 424 290 381Q349 357 376.5 342.5Q404 328 423 312Q456 286 472 254Q488 222 488 182Q488 99 418.5 44Q349 -11 245 -11Z" glyph-name="S" horiz-adv-x="535" unicode="S" /><glyph d="M245 -11Q186 -11 124.5 6.5Q63 24 27 51V118Q77 81 131.5 62.5Q186 44 244 44Q327 44 376.5 81Q426 118 426 179Q426 209 412 233.5Q398 258 368 278Q352 289 330 300Q308 311 260 331Q201 355 174.5 369.5Q148 384 129 399Q96 424 80.5 455.5Q65 487 65 526Q65 606 129 658.5Q193 711 286 711Q335 711 376.5 701.5Q418 692 456 672V608Q412 634 373.5 645.5Q335 657 286 657Q214 657 170 622Q126 587 126 529Q126 487 157 455.5Q188 424 290 381Q349 357 376.5 342.5Q404 328 423 312Q456 286 472 254Q488 222 488 182Q488 99 418.5 44Q349 -11 245 -11ZM503 927 323 776H268L404 927Z" glyph-name="Sacute" horiz-adv-x="535" unicode="&#346;" /><glyph d="M245 -11Q186 -11 124.5 6.5Q63 24 27 51V118Q77 81 131.5 62.5Q186 44 244 44Q327 44 376.5 81Q426 118 426 179Q426 209 412 233.5Q398 258 368 278Q352 289 330 300Q308 311 260 331Q201 355 174.5 369.5Q148 384 129 399Q96 424 80.5 455.5Q65 487 65 526Q65 606 129 658.5Q193 711 286 711Q335 711 376.5 701.5Q418 692 456 672V608Q412 634 373.5 645.5Q335 657 286 657Q214 657 170 622Q126 587 126 529Q126 487 157 455.5Q188 424 290 381Q349 357 376.5 342.5Q404 328 423 312Q456 286 472 254Q488 222 488 182Q488 99 418.5 44Q349 -11 245 -11ZM445 927 317 776H262L133 927H178L289 834L400 927Z" glyph-name="Scaron" horiz-adv-x="535" unicode="&#352;" /><glyph d="M245 -11Q186 -11 124.5 6.5Q63 24 27 51V118Q77 81 131.5 62.5Q186 44 244 44Q327 44 376.5 81Q426 118 426 179Q426 209 412 233.5Q398 258 368 278Q352 289 330 300Q308 311 260 331Q201 355 174.5 369.5Q148 384 129 399Q96 424 80.5 455.5Q65 487 65 526Q65 606 129 658.5Q193 711 286 711Q335 711 376.5 701.5Q418 692 456 672V608Q412 634 373.5 645.5Q335 657 286 657Q214 657 170 622Q126 587 126 529Q126 487 157 455.5Q188 424 290 381Q349 357 376.5 342.5Q404 328 423 312Q456 286 472 254Q488 222 488 182Q488 99 418.5 44Q349 -11 245 -11ZM133 776 262 927H317L445 776H400L289 870L178 776Z" glyph-name="Scircumflex" horiz-adv-x="535" unicode="&#348;" /><glyph d="M299 646H28V700H629V646H360V0H299Z" glyph-name="T" horiz-adv-x="657" unicode="T" /><glyph d="M496 383V330H360V0H299V330H162V383H299V646H28V700H629V646H360V383Z" glyph-name="Tbar" horiz-adv-x="657" unicode="&#358;" /><glyph d="M299 646H28V700H629V646H360V0H299ZM484 927 356 776H301L172 927H217L328 834L439 927Z" glyph-name="Tcaron" horiz-adv-x="657" unicode="&#356;" /><glyph d="M439 -145Q439 -186 403.5 -212.5Q368 -239 318 -239Q288 -239 262.5 -233Q237 -227 218 -215V-165Q241 -180 264.5 -187.5Q288 -195 318 -195Q350 -195 369 -182Q388 -169 388 -148Q388 -121 363 -108.5Q338 -96 285 -96L313 0H299V646H28V700H629V646H360V0H353L336 -56Q385 -63 412 -86.5Q439 -110 439 -145Z" glyph-name="Tcommaaccent" horiz-adv-x="657" unicode="&#354;" /><glyph d="M164 155V0H103V700H164V563H327Q434 563 500.5 507Q567 451 567 359Q567 266 501 210.5Q435 155 327 155ZM503 359Q503 428 454.5 469Q406 510 326 510H164V208H326Q406 208 454.5 249Q503 290 503 359Z" glyph-name="Thorn" horiz-adv-x="607" unicode="&#222;" /><glyph d="M354 -11Q224 -11 149.5 68Q75 147 75 288V700H136V295Q136 173 192 109Q248 45 354 45Q460 45 516 109Q572 173 572 295V700H633V288Q633 147 558.5 68Q484 -11 354 -11Z" glyph-name="U" horiz-adv-x="708" unicode="U" /><glyph d="M354 -11Q224 -11 149.5 68Q75 147 75 288V700H136V295Q136 173 192 109Q248 45 354 45Q460 45 516 109Q572 173 572 295V700H633V288Q633 147 558.5 68Q484 -11 354 -11ZM558 927 378 776H323L459 927Z" glyph-name="Uacute" horiz-adv-x="708" unicode="&#218;" /><glyph d="M354 -11Q224 -11 149.5 68Q75 147 75 288V700H136V295Q136 173 192 109Q248 45 354 45Q460 45 516 109Q572 173 572 295V700H633V288Q633 147 558.5 68Q484 -11 354 -11ZM354 776Q286 776 244.5 817.5Q203 859 203 927H250Q253 882 281 855Q309 828 354 828Q399 828 427.5 855Q456 882 458 927H506Q506 858 464.5 817Q423 776 354 776Z" glyph-name="Ubreve" horiz-adv-x="708" unicode="&#364;" /><glyph d="M354 -11Q224 -11 149.5 68Q75 147 75 288V700H136V295Q136 173 192 109Q248 45 354 45Q460 45 516 109Q572 173 572 295V700H633V288Q633 147 558.5 68Q484 -11 354 -11ZM198 776 327 927H382L510 776H465L354 870L243 776Z" glyph-name="Ucircumflex" horiz-adv-x="708" unicode="&#219;" /><glyph d="M354 -11Q224 -11 149.5 68Q75 147 75 288V700H136V295Q136 173 192 109Q248 45 354 45Q460 45 516 109Q572 173 572 295V700H633V288Q633 147 558.5 68Q484 -11 354 -11ZM441 809Q422 809 408.5 822.5Q395 836 395 855Q395 873 408.5 886.5Q422 900 441 900Q459 900 472.5 886.5Q486 873 486 855Q486 836 472.5 822.5Q459 809 441 809ZM268 809Q249 809 235.5 822.5Q222 836 222 855Q222 873 235.5 886.5Q249 900 268 900Q286 900 299.5 886.5Q313 873 313 855Q313 836 299.5 822.5Q286 809 268 809Z" glyph-name="Udieresis" horiz-adv-x="708" unicode="&#220;" /><glyph d="M354 -11Q224 -11 149.5 68Q75 147 75 288V700H136V295Q136 173 192 109Q248 45 354 45Q460 45 516 109Q572 173 572 295V700H633V288Q633 147 558.5 68Q484 -11 354 -11ZM252 927 389 776H333L154 927Z" glyph-name="Ugrave" horiz-adv-x="708" unicode="&#217;" /><glyph d="M354 -11Q224 -11 149.5 68Q75 147 75 288V700H136V295Q136 173 192 109Q248 45 354 45Q460 45 516 109Q572 173 572 295V700H633V288Q633 147 558.5 68Q484 -11 354 -11ZM279 776H233L350 927H438ZM452 776H406L523 927H611Z" glyph-name="Uhungarumlaut" horiz-adv-x="708" unicode="&#368;" /><glyph d="M354 -11Q224 -11 149.5 68Q75 147 75 288V700H136V295Q136 173 192 109Q248 45 354 45Q460 45 516 109Q572 173 572 295V700H633V288Q633 147 558.5 68Q484 -11 354 -11ZM506 852V802H203V852Z" glyph-name="Umacron" horiz-adv-x="708" unicode="&#362;" /><glyph d="M444 -239Q404 -239 377.5 -214.5Q351 -190 351 -148Q351 -110 368 -76.5Q385 -43 423 -5Q407 -8 389.5 -9.5Q372 -11 354 -11Q224 -11 149.5 68Q75 147 75 288V700H136V295Q136 173 192 109Q248 45 354 45Q460 45 516 109Q572 173 572 295V700H633V288Q633 203 608 144Q583 85 531 43Q464 -10 433 -54Q402 -98 402 -139Q402 -163 415.5 -178Q429 -193 449 -193Q459 -193 466 -191.5Q473 -190 484 -186V-232Q473 -236 464 -237.5Q455 -239 444 -239Z" glyph-name="Uogonek" horiz-adv-x="708" unicode="&#370;" /><glyph d="M354 -11Q224 -11 149.5 68Q75 147 75 288V700H136V295Q136 173 192 109Q248 45 354 45Q460 45 516 109Q572 173 572 295V700H633V288Q633 147 558.5 68Q484 -11 354 -11ZM467 853Q467 806 433.5 772Q400 738 354 738Q308 738 274.5 772Q241 806 241 853Q241 899 274.5 932.5Q308 966 354 966Q400 966 433.5 932.5Q467 899 467 853ZM287 853Q287 824 306.5 803.5Q326 783 354 783Q382 783 402 803.5Q422 824 422 853Q422 881 402 901.5Q382 922 354 922Q327 922 307 901.5Q287 881 287 853Z" glyph-name="Uring" horiz-adv-x="708" unicode="&#366;" /><glyph d="M354 -11Q224 -11 149.5 68Q75 147 75 288V700H136V295Q136 173 192 109Q248 45 354 45Q460 45 516 109Q572 173 572 295V700H633V288Q633 147 558.5 68Q484 -11 354 -11ZM423 776Q406 776 388.5 787Q371 798 341 834Q315 863 302 872Q289 881 278 881Q258 881 246 858Q234 835 226 776H181Q184 848 212 893Q240 938 285 938Q302 938 319.5 927Q337 916 368 880Q393 851 405.5 842.5Q418 834 429 834Q450 834 462 858Q474 882 481 938H527Q524 865 496 820.5Q468 776 423 776Z" glyph-name="Utilde" horiz-adv-x="708" unicode="&#360;" /><glyph d="M659 700 370 0H314L24 700H88L343 77L598 700Z" glyph-name="V" horiz-adv-x="683" unicode="V" /><glyph d="M266 91 439 700H496L669 91L849 700H905L696 0H642L465 614L289 0H234L24 700H86Z" glyph-name="W" horiz-adv-x="929" unicode="W" /><glyph d="M266 91 439 700H496L669 91L849 700H905L696 0H642L465 614L289 0H234L24 700H86ZM669 927 489 776H434L570 927Z" glyph-name="Wacute" horiz-adv-x="929" unicode="&#7810;" /><glyph d="M266 91 439 700H496L669 91L849 700H905L696 0H642L465 614L289 0H234L24 700H86ZM308 776 437 927H492L620 776H575L464 870L353 776Z" glyph-name="Wcircumflex" horiz-adv-x="929" unicode="&#372;" /><glyph d="M266 91 439 700H496L669 91L849 700H905L696 0H642L465 614L289 0H234L24 700H86ZM551 809Q532 809 518.5 822.5Q505 836 505 855Q505 873 518.5 886.5Q532 900 551 900Q569 900 582.5 886.5Q596 873 596 855Q596 836 582.5 822.5Q569 809 551 809ZM378 809Q359 809 345.5 822.5Q332 836 332 855Q332 873 345.5 886.5Q359 900 378 900Q396 900 409.5 886.5Q423 873 423 855Q423 836 409.5 822.5Q396 809 378 809Z" glyph-name="Wdieresis" horiz-adv-x="929" unicode="&#7812;" /><glyph d="M266 91 439 700H496L669 91L849 700H905L696 0H642L465 614L289 0H234L24 700H86ZM362 927 499 776H443L264 927Z" glyph-name="Wgrave" horiz-adv-x="929" unicode="&#7808;" /><glyph d="M649 0H577L336 318L95 0H24L301 362L43 700H116L338 408L561 700H631L372 363Z" glyph-name="X" horiz-adv-x="673" unicode="X" /><glyph d="M635 700 361 313V0H300V313L24 700H95L332 364L566 700Z" glyph-name="Y" horiz-adv-x="659" unicode="Y" /><glyph d="M635 700 361 313V0H300V313L24 700H95L332 364L566 700ZM534 927 354 776H299L435 927Z" glyph-name="Yacute" horiz-adv-x="659" unicode="&#221;" /><glyph d="M635 700 361 313V0H300V313L24 700H95L332 364L566 700ZM173 776 302 927H357L485 776H440L329 870L218 776Z" glyph-name="Ycircumflex" horiz-adv-x="659" unicode="&#374;" /><glyph d="M635 700 361 313V0H300V313L24 700H95L332 364L566 700ZM416 809Q397 809 383.5 822.5Q370 836 370 855Q370 873 383.5 886.5Q397 900 416 900Q434 900 447.5 886.5Q461 873 461 855Q461 836 447.5 822.5Q434 809 416 809ZM243 809Q224 809 210.5 822.5Q197 836 197 855Q197 873 210.5 886.5Q224 900 243 900Q261 900 274.5 886.5Q288 873 288 855Q288 836 274.5 822.5Q261 809 243 809Z" glyph-name="Ydieresis" horiz-adv-x="659" unicode="&#376;" /><glyph d="M635 700 361 313V0H300V313L24 700H95L332 364L566 700ZM227 927 364 776H308L129 927Z" glyph-name="Ygrave" horiz-adv-x="659" unicode="&#7922;" /><glyph d="M129 54H606V0H50V43L513 646H62V700H592V657Z" glyph-name="Z" horiz-adv-x="655" unicode="Z" /><glyph d="M129 54H606V0H50V43L513 646H62V700H592V657ZM554 927 374 776H319L455 927Z" glyph-name="Zacute" horiz-adv-x="655" unicode="&#377;" /><glyph d="M129 54H606V0H50V43L513 646H62V700H592V657ZM505 927 377 776H322L193 927H238L349 834L460 927Z" glyph-name="Zcaron" horiz-adv-x="655" unicode="&#381;" /><glyph d="M129 54H606V0H50V43L513 646H62V700H592V657ZM349 809Q330 809 317 822.5Q304 836 304 855Q304 873 317.5 886.5Q331 900 349 900Q368 900 381.5 886.5Q395 873 395 855Q395 836 381.5 822.5Q368 809 349 809Z" glyph-name="Zdotaccent" horiz-adv-x="655" unicode="&#379;" /><glyph d="M105 121Q105 83 130 61Q155 39 199 39Q237 39 273.5 52Q310 65 354 96V256Q229 252 167 218.5Q105 185 105 121ZM423 0H364L354 55Q315 23 273 6Q231 -11 189 -11Q126 -11 85.5 25Q45 61 45 121Q45 204 123.5 250.5Q202 297 354 302V345Q354 404 323 434.5Q292 465 232 465Q194 465 154.5 453Q115 441 72 416V472Q103 494 148.5 507.5Q194 521 232 521Q320 521 366.5 477Q413 433 413 353V94Q413 66 414.5 48.5Q416 31 423 0Z" glyph-name="a" horiz-adv-x="495" unicode="a" /><glyph d="M105 121Q105 83 130 61Q155 39 199 39Q237 39 273.5 52Q310 65 354 96V256Q229 252 167 218.5Q105 185 105 121ZM423 0H364L354 55Q315 23 273 6Q231 -11 189 -11Q126 -11 85.5 25Q45 61 45 121Q45 204 123.5 250.5Q202 297 354 302V345Q354 404 323 434.5Q292 465 232 465Q194 465 154.5 453Q115 441 72 416V472Q103 494 148.5 507.5Q194 521 232 521Q320 521 366.5 477Q413 433 413 353V94Q413 66 414.5 48.5Q416 31 423 0ZM359 791 242 612H206L277 791Z" glyph-name="aacute" horiz-adv-x="495" unicode="&#225;" /><glyph d="M105 121Q105 83 130 61Q155 39 199 39Q237 39 273.5 52Q310 65 354 96V256Q229 252 167 218.5Q105 185 105 121ZM423 0H364L354 55Q315 23 273 6Q231 -11 189 -11Q126 -11 85.5 25Q45 61 45 121Q45 204 123.5 250.5Q202 297 354 302V345Q354 404 323 434.5Q292 465 232 465Q194 465 154.5 453Q115 441 72 416V472Q103 494 148.5 507.5Q194 521 232 521Q320 521 366.5 477Q413 433 413 353V94Q413 66 414.5 48.5Q416 31 423 0ZM247 612Q184 612 147 660.5Q110 709 110 791H157Q160 729 183.5 695Q207 661 247 661Q288 661 311.5 695.5Q335 730 337 791H385Q385 709 348 660.5Q311 612 247 612Z" glyph-name="abreve" horiz-adv-x="495" unicode="&#259;" /><glyph d="M105 121Q105 83 130 61Q155 39 199 39Q237 39 273.5 52Q310 65 354 96V256Q229 252 167 218.5Q105 185 105 121ZM423 0H364L354 55Q315 23 273 6Q231 -11 189 -11Q126 -11 85.5 25Q45 61 45 121Q45 204 123.5 250.5Q202 297 354 302V345Q354 404 323 434.5Q292 465 232 465Q194 465 154.5 453Q115 441 72 416V472Q103 494 148.5 507.5Q194 521 232 521Q320 521 366.5 477Q413 433 413 353V94Q413 66 414.5 48.5Q416 31 423 0ZM110 612 220 791H275L385 612H340L247 733L154 612Z" glyph-name="acircumflex" horiz-adv-x="495" unicode="&#226;" /><glyph d="M338 791 221 612H185L256 791Z" glyph-name="acute" horiz-adv-x="523" unicode="&#180;" /><glyph d="M379 927 199 776H144L280 927Z" glyph-name="acute.cap" horiz-adv-x="523" /><glyph d="M105 121Q105 83 130 61Q155 39 199 39Q237 39 273.5 52Q310 65 354 96V256Q229 252 167 218.5Q105 185 105 121ZM423 0H364L354 55Q315 23 273 6Q231 -11 189 -11Q126 -11 85.5 25Q45 61 45 121Q45 204 123.5 250.5Q202 297 354 302V345Q354 404 323 434.5Q292 465 232 465Q194 465 154.5 453Q115 441 72 416V472Q103 494 148.5 507.5Q194 521 232 521Q320 521 366.5 477Q413 433 413 353V94Q413 66 414.5 48.5Q416 31 423 0ZM334 663Q315 663 301.5 676.5Q288 690 288 709Q288 727 301.5 740.5Q315 754 334 754Q352 754 365.5 740.5Q379 727 379 709Q379 690 365.5 676.5Q352 663 334 663ZM161 663Q142 663 128.5 676.5Q115 690 115 709Q115 727 128.5 740.5Q142 754 161 754Q179 754 192.5 740.5Q206 727 206 709Q206 690 192.5 676.5Q179 663 161 663Z" glyph-name="adieresis" horiz-adv-x="495" unicode="&#228;" /><glyph d="M616 -11Q546 -11 488.5 21Q431 53 396 110Q370 58 313 23.5Q256 -11 191 -11Q127 -11 86 27Q45 65 45 126Q45 205 126.5 252Q208 299 357 305V345Q357 403 325 434Q293 465 232 465Q194 465 154.5 453Q115 441 72 416V472Q103 494 148.5 507.5Q194 521 232 521Q300 521 343 493Q386 465 402 411Q432 463 479 492Q526 521 582 521Q685 521 738 450.5Q791 380 783 259H412V257Q412 163 469.5 103Q527 43 616 43Q669 43 701 51.5Q733 60 769 80V22Q735 6 696.5 -2.5Q658 -11 616 -11ZM582 469Q516 469 471.5 425.5Q427 382 415 305H724Q723 382 686 425.5Q649 469 582 469ZM105 126Q105 87 130.5 63Q156 39 199 39Q254 39 296.5 66Q339 93 376 151Q366 176 361 203.5Q356 231 356 259H351Q229 254 167 220.5Q105 187 105 126Z" glyph-name="ae" horiz-adv-x="827" unicode="&#230;" /><glyph d="M616 -11Q546 -11 488.5 21Q431 53 396 110Q370 58 313 23.5Q256 -11 191 -11Q127 -11 86 27Q45 65 45 126Q45 205 126.5 252Q208 299 357 305V345Q357 403 325 434Q293 465 232 465Q194 465 154.5 453Q115 441 72 416V472Q103 494 148.5 507.5Q194 521 232 521Q300 521 343 493Q386 465 402 411Q432 463 479 492Q526 521 582 521Q685 521 738 450.5Q791 380 783 259H412V257Q412 163 469.5 103Q527 43 616 43Q669 43 701 51.5Q733 60 769 80V22Q735 6 696.5 -2.5Q658 -11 616 -11ZM582 469Q516 469 471.5 425.5Q427 382 415 305H724Q723 382 686 425.5Q649 469 582 469ZM105 126Q105 87 130.5 63Q156 39 199 39Q254 39 296.5 66Q339 93 376 151Q366 176 361 203.5Q356 231 356 259H351Q229 254 167 220.5Q105 187 105 126ZM544 791 427 612H391L462 791Z" glyph-name="aeacute" horiz-adv-x="827" unicode="&#509;" /><glyph d="M105 121Q105 83 130 61Q155 39 199 39Q237 39 273.5 52Q310 65 354 96V256Q229 252 167 218.5Q105 185 105 121ZM423 0H364L354 55Q315 23 273 6Q231 -11 189 -11Q126 -11 85.5 25Q45 61 45 121Q45 204 123.5 250.5Q202 297 354 302V345Q354 404 323 434.5Q292 465 232 465Q194 465 154.5 453Q115 441 72 416V472Q103 494 148.5 507.5Q194 521 232 521Q320 521 366.5 477Q413 433 413 353V94Q413 66 414.5 48.5Q416 31 423 0ZM220 791 291 612H254L138 791Z" glyph-name="agrave" horiz-adv-x="495" unicode="&#224;" /><glyph d="M105 121Q105 83 130 61Q155 39 199 39Q237 39 273.5 52Q310 65 354 96V256Q229 252 167 218.5Q105 185 105 121ZM423 0H364L354 55Q315 23 273 6Q231 -11 189 -11Q126 -11 85.5 25Q45 61 45 121Q45 204 123.5 250.5Q202 297 354 302V345Q354 404 323 434.5Q292 465 232 465Q194 465 154.5 453Q115 441 72 416V472Q103 494 148.5 507.5Q194 521 232 521Q320 521 366.5 477Q413 433 413 353V94Q413 66 414.5 48.5Q416 31 423 0ZM380 706V656H114V706Z" glyph-name="amacron" horiz-adv-x="495" unicode="&#257;" /><glyph d="M90 200Q90 133 139 88Q188 43 262 43Q316 43 363.5 64Q411 85 449 126L216 363Q216 363 215.5 364Q215 365 213 366Q159 349 124.5 302.5Q90 256 90 200ZM654 0H572L485 89Q439 40 382 14.5Q325 -11 262 -11Q162 -11 96 49Q30 109 30 200Q30 269 70.5 322.5Q111 376 181 400Q145 440 131 471Q117 502 117 538Q117 615 170 663Q223 711 306 711Q347 711 385.5 699.5Q424 688 457 666V602Q414 635 380 647Q346 659 306 659Q247 659 212 626.5Q177 594 177 537Q177 508 193 478.5Q209 449 262 394L484 170Q515 218 533.5 275.5Q552 333 554 393H610Q608 326 585 257Q562 188 522 133Z" glyph-name="ampersand" horiz-adv-x="663" unicode="&amp;" /><glyph d="M422 -186V-232Q410 -236 401 -237.5Q392 -239 382 -239Q341 -239 314.5 -214.5Q288 -190 288 -148Q288 -109 305.5 -74.5Q323 -40 364 0L354 55Q315 23 273 6Q231 -11 189 -11Q126 -11 85.5 25Q45 61 45 121Q45 204 123.5 250.5Q202 297 354 302V345Q354 404 323 434.5Q292 465 232 465Q194 465 154.5 453Q115 441 72 416V472Q103 494 148.5 507.5Q194 521 232 521Q320 521 366.5 477Q413 433 413 353V94Q413 66 414.5 48.5Q416 31 423 0Q377 -41 358 -73Q339 -105 339 -139Q339 -163 352.5 -178Q366 -193 386 -193Q396 -193 402.5 -191.5Q409 -190 422 -186ZM105 121Q105 83 130 61Q155 39 199 39Q237 39 273.5 52Q310 65 354 96V256Q229 252 167 218.5Q105 185 105 121Z" glyph-name="aogonek" horiz-adv-x="495" unicode="&#261;" /><glyph d="M105 121Q105 83 130 61Q155 39 199 39Q237 39 273.5 52Q310 65 354 96V256Q229 252 167 218.5Q105 185 105 121ZM423 0H364L354 55Q315 23 273 6Q231 -11 189 -11Q126 -11 85.5 25Q45 61 45 121Q45 204 123.5 250.5Q202 297 354 302V345Q354 404 323 434.5Q292 465 232 465Q194 465 154.5 453Q115 441 72 416V472Q103 494 148.5 507.5Q194 521 232 521Q320 521 366.5 477Q413 433 413 353V94Q413 66 414.5 48.5Q416 31 423 0ZM247 802Q290 802 320.5 771.5Q351 741 351 699Q351 656 320.5 625.5Q290 595 247 595Q205 595 174.5 625.5Q144 656 144 699Q144 741 174.5 771.5Q205 802 247 802ZM247 762Q223 762 204.5 743Q186 724 186 699Q186 673 204 654Q222 635 247 635Q273 635 291 653.5Q309 672 309 699Q309 724 291 743Q273 762 247 762Z" glyph-name="aring" horiz-adv-x="495" unicode="&#229;" /><glyph d="M34 419 200 701H262L429 419H372L231 631L91 419Z" glyph-name="asciicircum" horiz-adv-x="462" unicode="^" /><glyph d="M362 228Q341 228 321.5 240Q302 252 270 289Q244 318 231 327Q218 336 205 336Q176 336 154.5 308.5Q133 281 120 225H70Q81 301 119.5 348.5Q158 396 208 396Q229 396 248.5 384Q268 372 300 335Q326 306 339 297Q352 288 365 288Q394 288 415.5 315.5Q437 343 450 399H500Q488 323 450 275.5Q412 228 362 228Z" glyph-name="asciitilde" horiz-adv-x="570" unicode="~" /><glyph d="M302 525 254 490 236 517 185 609 134 517 116 490 67 525 87 551 157 624 55 643 24 653 43 709 74 699 170 651 156 759V791H215V758L199 651L295 699L327 709L345 653L314 643L211 624L282 551Z" glyph-name="asterisk" horiz-adv-x="370" unicode="*" /><glyph d="M933 312Q933 187 869.5 106Q806 25 718 25Q683 25 653 40Q623 55 603 83Q572 56 538 41Q504 26 471 26Q416 26 380 58Q344 90 344 141Q344 213 410 253Q476 293 603 298V333Q603 384 577.5 410.5Q552 437 503 437Q470 437 437.5 426.5Q405 416 371 394V448Q395 467 433 479Q471 491 503 491Q576 491 616 451.5Q656 412 656 344V102Q665 90 684.5 82Q704 74 722 74Q786 74 830 141.5Q874 209 874 312Q874 463 774.5 561.5Q675 660 525 660Q440 660 364 627Q288 594 232 533Q177 474 148.5 396Q120 318 120 230Q120 145 150.5 70.5Q181 -4 239 -59Q296 -115 371.5 -144.5Q447 -174 530 -174Q624 -174 704.5 -147Q785 -120 849 -67V-126Q789 -174 705 -200Q621 -226 529 -226Q434 -226 347.5 -192.5Q261 -159 197 -98Q131 -35 96 49Q61 133 61 231Q61 329 94.5 416.5Q128 504 191 570Q256 639 342 675.5Q428 712 524 712Q607 712 682 682.5Q757 653 814 599Q872 543 902.5 469.5Q933 396 933 312ZM402 141Q402 112 425 93.5Q448 75 484 75Q512 75 540.5 86Q569 97 603 122V250Q503 246 452.5 219Q402 192 402 141Z" glyph-name="at" horiz-adv-x="994" unicode="@" /><glyph d="M105 121Q105 83 130 61Q155 39 199 39Q237 39 273.5 52Q310 65 354 96V256Q229 252 167 218.5Q105 185 105 121ZM423 0H364L354 55Q315 23 273 6Q231 -11 189 -11Q126 -11 85.5 25Q45 61 45 121Q45 204 123.5 250.5Q202 297 354 302V345Q354 404 323 434.5Q292 465 232 465Q194 465 154.5 453Q115 441 72 416V472Q103 494 148.5 507.5Q194 521 232 521Q320 521 366.5 477Q413 433 413 353V94Q413 66 414.5 48.5Q416 31 423 0ZM308 627Q291 627 274.5 638Q258 649 231 685Q207 714 195 723Q183 732 172 732Q152 732 140 709Q128 686 120 627H75Q78 699 106 744Q134 789 179 789Q196 789 212.5 777.5Q229 766 257 731Q279 702 291 693Q303 684 314 684Q335 684 347 708.5Q359 733 366 789H412Q409 716 381 671.5Q353 627 308 627Z" glyph-name="atilde" horiz-adv-x="495" unicode="&#227;" /><glyph d="M268 -11Q218 -11 172 -1Q126 9 90 28V791L149 803V457Q178 485 223.5 503Q269 521 312 521Q414 521 474.5 453Q535 385 535 268Q535 144 460 66.5Q385 -11 268 -11ZM309 469Q266 469 223 453Q180 437 149 411V64Q175 53 204 47.5Q233 42 268 42Q362 42 418.5 104Q475 166 475 268Q475 362 430.5 415.5Q386 469 309 469Z" glyph-name="b" horiz-adv-x="576" unicode="b" /><glyph d="M31 791H91L398 -122H339Z" glyph-name="backslash" horiz-adv-x="380" unicode="\" /><glyph d="M173 791V-122H116V791Z" glyph-name="bar" horiz-adv-x="288" unicode="|" /><glyph d="M73 310H15V359H73Q108 359 124.5 378Q141 397 141 436L114 652Q114 714 155.5 752.5Q197 791 260 791Q279 791 295.5 787Q312 783 333 773V729Q320 735 303.5 739Q287 743 271 743Q227 743 198 720Q169 697 169 660L197 435Q197 394 173.5 368Q150 342 108 334Q150 327 173.5 301Q197 275 197 234L169 8Q169 -29 198 -52Q227 -75 271 -75Q286 -75 302.5 -71Q319 -67 333 -60V-104Q314 -114 297.5 -118Q281 -122 260 -122Q197 -122 155.5 -83.5Q114 -45 114 16L141 232Q141 272 124.5 291Q108 310 73 310Z" glyph-name="braceleft" horiz-adv-x="358" unicode="{" /><glyph d="M285 310Q250 310 233.5 291Q217 272 217 232L244 16Q244 -45 202.5 -83.5Q161 -122 98 -122Q77 -122 60.5 -118Q44 -114 25 -104V-60Q39 -67 55.5 -71Q72 -75 87 -75Q131 -75 160 -52Q189 -29 189 8L161 234Q161 275 184.5 301Q208 327 250 334Q208 342 184.5 368Q161 394 161 435L189 660Q189 697 160 720Q131 743 87 743Q71 743 54.5 739Q38 735 25 729V773Q46 783 62.5 787Q79 791 98 791Q161 791 202.5 752.5Q244 714 244 652L217 436Q217 397 233.5 378Q250 359 285 359H343V310H285Z" glyph-name="braceright" horiz-adv-x="358" unicode="}" /><glyph d="M290 744H125V-75H290V-122H70V791H290Z" glyph-name="bracketleft" horiz-adv-x="314" unicode="[" /><glyph d="M24 791H244V-122H24V-75H189V744H24Z" glyph-name="bracketright" horiz-adv-x="314" unicode="]" /><glyph d="M261 612Q198 612 161 660.5Q124 709 124 791H171Q174 729 197.5 695Q221 661 261 661Q302 661 325.5 695.5Q349 730 351 791H399Q399 709 362 660.5Q325 612 261 612Z" glyph-name="breve" horiz-adv-x="523" unicode="&#728;" /><glyph d="M261 776Q193 776 151.5 817.5Q110 859 110 927H157Q160 882 188 855Q216 828 261 828Q306 828 334.5 855Q363 882 365 927H413Q413 858 371.5 817Q330 776 261 776Z" glyph-name="breve.cap" horiz-adv-x="523" /><glyph d="M366 273Q366 212 322.5 168.5Q279 125 218 125Q157 125 113.5 168.5Q70 212 70 273Q70 335 113.5 378.5Q157 422 218 422Q279 422 322.5 378.5Q366 335 366 273Z" glyph-name="bullet" horiz-adv-x="436" unicode="&#8226;" /><glyph d="M298 -11Q189 -11 116 64Q43 139 43 252Q43 368 115.5 444.5Q188 521 298 521Q325 521 356 514Q387 507 410 496V440Q387 453 358 460Q329 467 298 467Q212 467 157 407Q102 347 102 252Q102 160 157.5 101.5Q213 43 298 43Q326 43 358 50.5Q390 58 414 71V15Q393 4 359.5 -3.5Q326 -11 298 -11Z" glyph-name="c" horiz-adv-x="466" unicode="c" /><glyph d="M298 -11Q189 -11 116 64Q43 139 43 252Q43 368 115.5 444.5Q188 521 298 521Q325 521 356 514Q387 507 410 496V440Q387 453 358 460Q329 467 298 467Q212 467 157 407Q102 347 102 252Q102 160 157.5 101.5Q213 43 298 43Q326 43 358 50.5Q390 58 414 71V15Q393 4 359.5 -3.5Q326 -11 298 -11ZM417 791 300 612H264L335 791Z" glyph-name="cacute" horiz-adv-x="466" unicode="&#263;" /><glyph d="M400 791 290 612H235L125 791H169L262 670L355 791Z" glyph-name="caron" horiz-adv-x="523" unicode="&#711;" /><glyph d="M206 539H164L189 791H259Z" glyph-name="caron.Slovak" horiz-adv-x="431" /><glyph d="M418 927 290 776H235L106 927H151L262 834L373 927Z" glyph-name="caron.cap" horiz-adv-x="523" /><glyph d="M298 -11Q189 -11 116 64Q43 139 43 252Q43 368 115.5 444.5Q188 521 298 521Q325 521 356 514Q387 507 410 496V440Q387 453 358 460Q329 467 298 467Q212 467 157 407Q102 347 102 252Q102 160 157.5 101.5Q213 43 298 43Q326 43 358 50.5Q390 58 414 71V15Q393 4 359.5 -3.5Q326 -11 298 -11ZM426 791 316 612H261L151 791H195L288 670L381 791Z" glyph-name="ccaron" horiz-adv-x="466" unicode="&#269;" /><glyph d="M371 -145Q371 -186 335.5 -212.5Q300 -239 250 -239Q220 -239 194.5 -233Q169 -227 150 -215V-165Q173 -180 196.5 -187.5Q220 -195 250 -195Q282 -195 301 -182Q320 -169 320 -148Q320 -121 295 -108.5Q270 -96 217 -96L243 -6Q170 8 116 64Q43 139 43 252Q43 368 115.5 444.5Q188 521 298 521Q325 521 356 514Q387 507 410 496V440Q387 453 358 460Q329 467 298 467Q212 467 157 407Q102 347 102 252Q102 160 157.5 101.5Q213 43 298 43Q326 43 358 50.5Q390 58 414 71V15Q393 4 359.5 -3.5Q326 -11 298 -11Q289 -11 281 -10L268 -56Q317 -63 344 -86.5Q371 -110 371 -145Z" glyph-name="ccedilla" horiz-adv-x="466" unicode="&#231;" /><glyph d="M298 -11Q189 -11 116 64Q43 139 43 252Q43 368 115.5 444.5Q188 521 298 521Q325 521 356 514Q387 507 410 496V440Q387 453 358 460Q329 467 298 467Q212 467 157 407Q102 347 102 252Q102 160 157.5 101.5Q213 43 298 43Q326 43 358 50.5Q390 58 414 71V15Q393 4 359.5 -3.5Q326 -11 298 -11ZM151 612 261 791H316L426 612H381L288 733L195 612Z" glyph-name="ccircumflex" horiz-adv-x="466" unicode="&#265;" /><glyph d="M298 -11Q189 -11 116 64Q43 139 43 252Q43 368 115.5 444.5Q188 521 298 521Q325 521 356 514Q387 507 410 496V440Q387 453 358 460Q329 467 298 467Q212 467 157 407Q102 347 102 252Q102 160 157.5 101.5Q213 43 298 43Q326 43 358 50.5Q390 58 414 71V15Q393 4 359.5 -3.5Q326 -11 298 -11ZM287 663Q268 663 255 676.5Q242 690 242 709Q242 727 255.5 740.5Q269 754 287 754Q306 754 319.5 740.5Q333 727 333 709Q333 690 319.5 676.5Q306 663 287 663Z" glyph-name="cdotaccent" horiz-adv-x="466" unicode="&#267;" /><glyph d="M361 -145Q361 -186 325.5 -212.5Q290 -239 240 -239Q210 -239 184.5 -233Q159 -227 140 -215V-165Q163 -180 186.5 -187.5Q210 -195 240 -195Q272 -195 291 -182Q310 -169 310 -148Q310 -121 285 -108.5Q260 -96 207 -96L237 7H277L258 -56Q307 -63 334 -86.5Q361 -110 361 -145Z" glyph-name="cedilla" horiz-adv-x="523" unicode="&#184;" /><glyph d="M305 77Q304 77 302.5 77Q301 77 300 77V-77H244V83Q148 102 88.5 174.5Q29 247 29 346Q29 448 88.5 522Q148 596 244 616V773H300V622H305Q334 622 368 615.5Q402 609 426 598V541Q402 555 371 562Q340 569 305 569Q211 569 150 507Q89 445 89 346Q89 250 150.5 189.5Q212 129 305 129Q337 129 371 137Q405 145 431 159V104Q407 92 371 84.5Q335 77 305 77Z" glyph-name="cent" horiz-adv-x="472" unicode="&#162;" /><glyph d="M125 612 235 791H290L400 612H355L262 733L169 612Z" glyph-name="circumflex" horiz-adv-x="523" unicode="&#710;" /><glyph d="M106 776 235 927H290L418 776H373L262 870L151 776Z" glyph-name="circumflex.cap" horiz-adv-x="523" /><glyph d="M109 -3Q89 -3 75 11.5Q61 26 61 47Q61 67 75 81.5Q89 96 109 96Q129 96 143 81.5Q157 67 157 47Q157 26 143 11.5Q129 -3 109 -3ZM109 366Q89 366 75 380.5Q61 395 61 416Q61 436 75 450.5Q89 465 109 465Q129 465 143 450.5Q157 436 157 416Q157 395 143 380.5Q129 366 109 366Z" glyph-name="colon" horiz-adv-x="218" unicode=":" /><glyph d="M80 93H145Q145 37 123.5 -26.5Q102 -90 72 -133H27Q49 -96 64.5 -30.5Q80 35 80 93Z" glyph-name="comma" horiz-adv-x="218" unicode="," /><glyph d="M34 351Q34 505 138 608.5Q242 712 395 712Q548 712 651.5 609Q755 506 755 351Q755 196 651.5 92.5Q548 -11 395 -11Q242 -11 138 92.5Q34 196 34 351ZM81 351Q81 216 171.5 125.5Q262 35 395 35Q527 35 617.5 125.5Q708 216 708 351Q708 486 618 576.5Q528 667 395 667Q262 667 171.5 576.5Q81 486 81 351ZM418 153Q333 153 278.5 207.5Q224 262 224 350Q224 439 279 497.5Q334 556 418 556Q443 556 467 549.5Q491 543 506 532V476Q490 488 465 495.5Q440 503 417 503Q360 503 322.5 460.5Q285 418 285 350Q285 284 321.5 245Q358 206 417 206Q440 206 465 213.5Q490 221 506 232V178Q491 166 468 159.5Q445 153 418 153Z" glyph-name="copyright" horiz-adv-x="789" unicode="&#169;" /><glyph d="M270 42Q312 42 351.5 58Q391 74 427 106V435Q407 453 373.5 462.5Q340 472 302 472Q211 472 156.5 409.5Q102 347 102 243Q102 150 147.5 96Q193 42 270 42ZM486 8 427 -3V56Q391 23 350.5 6Q310 -11 269 -11Q166 -11 104.5 57.5Q43 126 43 243Q43 367 115.5 444Q188 521 302 521Q337 521 371.5 512Q406 503 427 489V791L486 803Z" glyph-name="d" horiz-adv-x="576" unicode="d" /><glyph d="M160 653 176 578V466H117V577L132 653L57 638H24V697H56L132 683L117 759V791H176V758L160 682L239 697H270V638H238Z" glyph-name="dagger" horiz-adv-x="295" unicode="&#8224;" /><glyph d="M161 553 176 499V466H117V498L131 553L56 538H24V598H57L127 583V674L57 660H24V719H56L131 704L117 759V791H176V758L161 704L239 719H270V660H238L165 674V583L238 598H270V538H239Z" glyph-name="daggerdbl" horiz-adv-x="295" unicode="&#8225;" /><glyph d="M270 42Q312 42 351.5 58Q391 74 427 106V435Q407 453 373.5 462.5Q340 472 302 472Q211 472 156.5 409.5Q102 347 102 243Q102 150 147.5 96Q193 42 270 42ZM486 8 427 -3V56Q391 23 350.5 6Q310 -11 269 -11Q166 -11 104.5 57.5Q43 126 43 243Q43 367 115.5 444Q188 521 302 521Q337 521 371.5 512Q406 503 427 489V791L486 803ZM604 539H562L587 791H657Z" glyph-name="dcaron" horiz-adv-x="646" unicode="&#271;" /><glyph d="M270 42Q312 42 351.5 58Q391 74 427 106V435Q407 453 373.5 462.5Q340 472 302 472Q211 472 156.5 409.5Q102 347 102 243Q102 150 147.5 96Q193 42 270 42ZM427 -3V56Q391 23 350.5 6Q310 -11 269 -11Q166 -11 104.5 57.5Q43 126 43 243Q43 367 115.5 444Q188 521 302 521Q337 521 371.5 512Q406 503 427 489V629H257V672H427V791L486 803V672H568V629H486V8Z" glyph-name="dcroat" horiz-adv-x="576" unicode="&#273;" /><glyph d="M34 565Q34 625 77.5 668.5Q121 712 181 712Q244 712 287.5 669Q331 626 331 565Q331 502 287.5 458.5Q244 415 181 415Q121 415 77.5 459Q34 503 34 565ZM85 565Q85 524 113 495Q141 466 181 466Q223 466 251 494.5Q279 523 279 565Q279 605 250.5 633.5Q222 662 181 662Q141 662 113 633.5Q85 605 85 565Z" glyph-name="degree" horiz-adv-x="364" unicode="&#176;" /><glyph d="M348 663Q329 663 315.5 676.5Q302 690 302 709Q302 727 315.5 740.5Q329 754 348 754Q366 754 379.5 740.5Q393 727 393 709Q393 690 379.5 676.5Q366 663 348 663ZM175 663Q156 663 142.5 676.5Q129 690 129 709Q129 727 142.5 740.5Q156 754 175 754Q193 754 206.5 740.5Q220 727 220 709Q220 690 206.5 676.5Q193 663 175 663Z" glyph-name="dieresis" horiz-adv-x="523" unicode="&#168;" /><glyph d="M348 809Q329 809 315.5 822.5Q302 836 302 855Q302 873 315.5 886.5Q329 900 348 900Q366 900 379.5 886.5Q393 873 393 855Q393 836 379.5 822.5Q366 809 348 809ZM175 809Q156 809 142.5 822.5Q129 836 129 855Q129 873 142.5 886.5Q156 900 175 900Q193 900 206.5 886.5Q220 873 220 855Q220 836 206.5 822.5Q193 809 175 809Z" glyph-name="dieresis.cap" horiz-adv-x="523" /><glyph d="M300 475Q279 475 264.5 490Q250 505 250 526Q250 546 265 561Q280 576 300 576Q321 576 336 561.5Q351 547 351 526Q351 504 336.5 489.5Q322 475 300 475ZM555 303H46V356H555ZM300 84Q280 84 265 99Q250 114 250 135Q250 155 265 170Q280 185 300 185Q321 185 336 170.5Q351 156 351 135Q351 114 336 99Q321 84 300 84Z" glyph-name="divide" horiz-adv-x="601" unicode="&#247;" /><glyph d="M278 71V-77H222V68Q171 69 124.5 82Q78 95 43 116V178Q88 149 134 135Q180 121 232 121Q305 121 350.5 147.5Q396 174 396 219Q396 250 369.5 272.5Q343 295 253 324Q200 341 175 351.5Q150 362 132 374Q100 394 84.5 420.5Q69 447 69 481Q69 535 111 574.5Q153 614 222 625V773H278V630Q311 630 345 623Q379 616 421 599V539Q384 559 348 568.5Q312 578 276 578Q208 578 169 553Q130 528 130 484Q130 450 157.5 426.5Q185 403 277 375Q329 359 353 349Q377 339 395 329Q426 309 441 284Q456 259 456 226Q456 165 407.5 123.5Q359 82 278 71Z" glyph-name="dollar" horiz-adv-x="499" unicode="$" /><glyph d="M261 663Q242 663 229 676.5Q216 690 216 709Q216 727 229.5 740.5Q243 754 261 754Q280 754 293.5 740.5Q307 727 307 709Q307 690 293.5 676.5Q280 663 261 663Z" glyph-name="dotaccent" horiz-adv-x="523" unicode="&#729;" /><glyph d="M261 809Q242 809 229 822.5Q216 836 216 855Q216 873 229.5 886.5Q243 900 261 900Q280 900 293.5 886.5Q307 873 307 855Q307 836 293.5 822.5Q280 809 261 809Z" glyph-name="dotaccent.cap" horiz-adv-x="523" /><glyph d="M149 0H90V502L149 514Z" glyph-name="dotlessi" horiz-adv-x="239" unicode="&#305;" /><glyph d="M272 469Q206 469 160.5 425Q115 381 103 305H413V311Q413 384 376 426.5Q339 469 272 469ZM457 80V22Q423 6 385 -2.5Q347 -11 304 -11Q190 -11 116.5 65.5Q43 142 43 257Q43 370 108 445.5Q173 521 272 521Q368 521 420.5 460.5Q473 400 473 292Q473 279 473 272Q473 265 472 259H100V257Q100 163 157.5 103Q215 43 304 43Q357 43 389 51.5Q421 60 457 80Z" glyph-name="e" horiz-adv-x="516" unicode="e" /><glyph d="M272 469Q206 469 160.5 425Q115 381 103 305H413V311Q413 384 376 426.5Q339 469 272 469ZM457 80V22Q423 6 385 -2.5Q347 -11 304 -11Q190 -11 116.5 65.5Q43 142 43 257Q43 370 108 445.5Q173 521 272 521Q368 521 420.5 460.5Q473 400 473 292Q473 279 473 272Q473 265 472 259H100V257Q100 163 157.5 103Q215 43 304 43Q357 43 389 51.5Q421 60 457 80ZM389 791 272 612H236L307 791Z" glyph-name="eacute" horiz-adv-x="516" unicode="&#233;" /><glyph d="M272 469Q206 469 160.5 425Q115 381 103 305H413V311Q413 384 376 426.5Q339 469 272 469ZM457 80V22Q423 6 385 -2.5Q347 -11 304 -11Q190 -11 116.5 65.5Q43 142 43 257Q43 370 108 445.5Q173 521 272 521Q368 521 420.5 460.5Q473 400 473 292Q473 279 473 272Q473 265 472 259H100V257Q100 163 157.5 103Q215 43 304 43Q357 43 389 51.5Q421 60 457 80ZM277 612Q214 612 177 660.5Q140 709 140 791H187Q190 729 213.5 695Q237 661 277 661Q318 661 341.5 695.5Q365 730 367 791H415Q415 709 378 660.5Q341 612 277 612Z" glyph-name="ebreve" horiz-adv-x="516" unicode="&#277;" /><glyph d="M272 469Q206 469 160.5 425Q115 381 103 305H413V311Q413 384 376 426.5Q339 469 272 469ZM457 80V22Q423 6 385 -2.5Q347 -11 304 -11Q190 -11 116.5 65.5Q43 142 43 257Q43 370 108 445.5Q173 521 272 521Q368 521 420.5 460.5Q473 400 473 292Q473 279 473 272Q473 265 472 259H100V257Q100 163 157.5 103Q215 43 304 43Q357 43 389 51.5Q421 60 457 80ZM415 791 305 612H250L140 791H184L277 670L370 791Z" glyph-name="ecaron" horiz-adv-x="516" unicode="&#283;" /><glyph d="M272 469Q206 469 160.5 425Q115 381 103 305H413V311Q413 384 376 426.5Q339 469 272 469ZM457 80V22Q423 6 385 -2.5Q347 -11 304 -11Q190 -11 116.5 65.5Q43 142 43 257Q43 370 108 445.5Q173 521 272 521Q368 521 420.5 460.5Q473 400 473 292Q473 279 473 272Q473 265 472 259H100V257Q100 163 157.5 103Q215 43 304 43Q357 43 389 51.5Q421 60 457 80ZM140 612 250 791H305L415 612H370L277 733L184 612Z" glyph-name="ecircumflex" horiz-adv-x="516" unicode="&#234;" /><glyph d="M272 469Q206 469 160.5 425Q115 381 103 305H413V311Q413 384 376 426.5Q339 469 272 469ZM457 80V22Q423 6 385 -2.5Q347 -11 304 -11Q190 -11 116.5 65.5Q43 142 43 257Q43 370 108 445.5Q173 521 272 521Q368 521 420.5 460.5Q473 400 473 292Q473 279 473 272Q473 265 472 259H100V257Q100 163 157.5 103Q215 43 304 43Q357 43 389 51.5Q421 60 457 80ZM364 663Q345 663 331.5 676.5Q318 690 318 709Q318 727 331.5 740.5Q345 754 364 754Q382 754 395.5 740.5Q409 727 409 709Q409 690 395.5 676.5Q382 663 364 663ZM191 663Q172 663 158.5 676.5Q145 690 145 709Q145 727 158.5 740.5Q172 754 191 754Q209 754 222.5 740.5Q236 727 236 709Q236 690 222.5 676.5Q209 663 191 663Z" glyph-name="edieresis" horiz-adv-x="516" unicode="&#235;" /><glyph d="M272 469Q206 469 160.5 425Q115 381 103 305H413V311Q413 384 376 426.5Q339 469 272 469ZM457 80V22Q423 6 385 -2.5Q347 -11 304 -11Q190 -11 116.5 65.5Q43 142 43 257Q43 370 108 445.5Q173 521 272 521Q368 521 420.5 460.5Q473 400 473 292Q473 279 473 272Q473 265 472 259H100V257Q100 163 157.5 103Q215 43 304 43Q357 43 389 51.5Q421 60 457 80ZM277 663Q258 663 245 676.5Q232 690 232 709Q232 727 245.5 740.5Q259 754 277 754Q296 754 309.5 740.5Q323 727 323 709Q323 690 309.5 676.5Q296 663 277 663Z" glyph-name="edotaccent" horiz-adv-x="516" unicode="&#279;" /><glyph d="M272 469Q206 469 160.5 425Q115 381 103 305H413V311Q413 384 376 426.5Q339 469 272 469ZM457 80V22Q423 6 385 -2.5Q347 -11 304 -11Q190 -11 116.5 65.5Q43 142 43 257Q43 370 108 445.5Q173 521 272 521Q368 521 420.5 460.5Q473 400 473 292Q473 279 473 272Q473 265 472 259H100V257Q100 163 157.5 103Q215 43 304 43Q357 43 389 51.5Q421 60 457 80ZM250 791 321 612H284L168 791Z" glyph-name="egrave" horiz-adv-x="516" unicode="&#232;" /><glyph d="M520 184Q520 100 450.5 44.5Q381 -11 277 -11Q176 -11 107 44.5Q38 100 38 182Q38 244 85.5 296Q133 348 208 373Q145 403 112 444Q79 485 79 534Q79 611 137 661Q195 711 281 711Q370 711 428.5 663.5Q487 616 487 542Q487 487 450 439.5Q413 392 349 364Q413 333 431.5 321.5Q450 310 464 299Q493 275 506.5 247Q520 219 520 184ZM137 543Q137 503 161 473.5Q185 444 250 413L309 384Q365 410 398.5 451.5Q432 493 432 537Q432 594 390 629Q348 664 280 664Q218 664 177.5 629.5Q137 595 137 543ZM98 182Q98 123 150 81.5Q202 40 277 40Q358 40 410 79.5Q462 119 462 183Q462 220 429.5 252Q397 284 315 322L252 352Q178 324 138 280.5Q98 237 98 182Z" glyph-name="eight" horiz-adv-x="558" unicode="8" /><glyph d="M505 184Q505 100 437.5 44.5Q370 -11 269 -11Q171 -11 104.5 44.5Q38 100 38 182Q38 244 84 295.5Q130 347 203 373Q142 403 110 444Q78 485 78 534Q78 611 134 661Q190 711 274 711Q360 711 416.5 663.5Q473 616 473 542Q473 486 437.5 439Q402 392 340 364Q409 328 424.5 318.5Q440 309 452 299Q479 276 492 247.5Q505 219 505 184ZM136 543Q136 502 159 473Q182 444 244 413L301 384Q354 410 385.5 451Q417 492 417 537Q417 594 377.5 629Q338 664 273 664Q213 664 174.5 629.5Q136 595 136 543ZM98 182Q98 122 147 81Q196 40 269 40Q347 40 397 79.5Q447 119 447 183Q447 219 416.5 250.5Q386 282 306 322L245 352Q174 325 136 281.5Q98 238 98 182Z" glyph-name="eight.op" horiz-adv-x="543" /><glyph d="M109 -4Q89 -4 75 10.5Q61 25 61 46Q61 66 75 80.5Q89 95 109 95Q129 95 143 80.5Q157 66 157 46Q157 25 143 10.5Q129 -4 109 -4ZM349 -4Q329 -4 315 10.5Q301 25 301 46Q301 66 315 80.5Q329 95 349 95Q369 95 383 80.5Q397 66 397 46Q397 25 383 10.5Q369 -4 349 -4ZM589 -4Q569 -4 555 10.5Q541 25 541 46Q541 66 555 80.5Q569 95 589 95Q609 95 623 80.5Q637 66 637 46Q637 25 623 10.5Q609 -4 589 -4Z" glyph-name="ellipsis" horiz-adv-x="698" unicode="&#8230;" /><glyph d="M272 469Q206 469 160.5 425Q115 381 103 305H413V311Q413 384 376 426.5Q339 469 272 469ZM457 80V22Q423 6 385 -2.5Q347 -11 304 -11Q190 -11 116.5 65.5Q43 142 43 257Q43 370 108 445.5Q173 521 272 521Q368 521 420.5 460.5Q473 400 473 292Q473 279 473 272Q473 265 472 259H100V257Q100 163 157.5 103Q215 43 304 43Q357 43 389 51.5Q421 60 457 80ZM410 706V656H144V706Z" glyph-name="emacron" horiz-adv-x="516" unicode="&#275;" /><glyph d="M1022 250H70V301H1022Z" glyph-name="emdash" horiz-adv-x="1092" unicode="&#8212;" /><glyph d="M566 250H70V301H566Z" glyph-name="endash" horiz-adv-x="636" unicode="&#8211;" /><glyph d="M423 -228H356Q401 -178 420 -126Q439 -74 442 5V337Q442 406 413 437Q384 468 321 468Q275 468 233.5 454.5Q192 441 149 411V0H90V502L149 514V456Q185 485 234.5 503Q284 521 331 521Q414 521 457.5 477.5Q501 434 501 353V5Q499 -72 483 -122Q467 -172 423 -228Z" glyph-name="eng" horiz-adv-x="585" unicode="&#331;" /><glyph d="M272 469Q206 469 160.5 425Q115 381 103 305H413V311Q413 384 376 426.5Q339 469 272 469ZM423 -186V-232Q412 -236 403 -237.5Q394 -239 383 -239Q343 -239 316.5 -214.5Q290 -190 290 -148Q290 -111 306 -78Q322 -45 359 -7Q347 -9 333.5 -10Q320 -11 304 -11Q190 -11 116.5 65.5Q43 142 43 257Q43 370 108 445.5Q173 521 272 521Q368 521 420.5 460.5Q473 400 473 292Q473 279 473 272Q473 265 472 259H100V257Q100 163 157.5 103Q215 43 304 43Q357 43 389 51.5Q421 60 457 80V22Q402 -13 371.5 -55.5Q341 -98 341 -139Q341 -163 354.5 -178Q368 -193 388 -193Q398 -193 405 -191.5Q412 -190 423 -186Z" glyph-name="eogonek" horiz-adv-x="516" unicode="&#281;" /><glyph d="M555 413H46V466H555ZM555 194H46V247H555Z" glyph-name="equal" horiz-adv-x="601" unicode="=" /><glyph d="M512 294Q512 162 443.5 75.5Q375 -11 274 -11Q174 -11 108 63Q42 137 42 251Q42 371 115.5 446Q189 521 300 521Q334 521 362.5 513Q391 505 420 487Q403 530 377 568.5Q351 607 317 640L174 596V642L277 674Q242 701 199.5 723.5Q157 746 106 765L150 801Q205 780 252 752.5Q299 725 338 692L440 724V678L375 658Q443 587 477.5 495Q512 403 512 294ZM101 251Q101 157 148.5 100Q196 43 274 43Q354 43 403.5 112.5Q453 182 453 295Q453 331 449 364.5Q445 398 438 429Q411 449 376.5 458.5Q342 468 300 468Q211 468 156 408.5Q101 349 101 251Z" glyph-name="eth" horiz-adv-x="554" unicode="&#240;" /><glyph d="M157 700 133 228H104L79 700ZM118 -4Q98 -4 84 10.5Q70 25 70 46Q70 66 84 80.5Q98 95 118 95Q139 95 153 81Q167 67 167 46Q167 25 153 10.5Q139 -4 118 -4Z" glyph-name="exclam" horiz-adv-x="237" unicode="!" /><glyph d="M80 0 104 472H133L158 0ZM119 704Q139 704 153 689.5Q167 675 167 654Q167 634 153 619.5Q139 605 119 605Q98 605 84 619Q70 633 70 654Q70 675 84 689.5Q98 704 119 704Z" glyph-name="exclamdown" horiz-adv-x="237" unicode="&#161;" /><glyph d="M322 461H158V0H99V461H22V510H99V562Q99 675 156.5 738.5Q214 802 314 802Q335 802 351 799.5Q367 797 386 792V742Q368 747 353 749Q338 751 314 751Q237 751 197.5 703Q158 655 158 562V510H334Z" glyph-name="f" horiz-adv-x="319" unicode="f" /><glyph d="M654 521Q756 521 816 453Q876 385 876 268Q876 144 801 66.5Q726 -11 609 -11Q559 -11 513.5 -1Q468 9 432 28V737Q412 743 393.5 746Q375 749 350 749Q261 749 209.5 695.5Q158 642 158 546V510H334L322 461H158V0H99V461H22V510H99V546Q99 660 169.5 731Q240 802 350 802Q384 802 420.5 795.5Q457 789 491 776V457Q520 485 565.5 503Q611 521 654 521ZM650 469Q607 469 563.5 453Q520 437 491 411V64Q516 53 545.5 47.5Q575 42 609 42Q704 42 760.5 103.5Q817 165 817 268Q817 362 772 415.5Q727 469 650 469Z" glyph-name="f_b" horiz-adv-x="918" /><glyph d="M987 521Q1089 521 1149 453Q1209 385 1209 268Q1209 144 1134 66.5Q1059 -11 942 -11Q892 -11 846.5 -1Q801 9 765 28V737Q745 743 726.5 746Q708 749 683 749Q594 749 542.5 695.5Q491 642 491 546V510H667L655 461H491V0H432V461H158V0H99V461H22V510H99V544Q99 656 156.5 719.5Q214 783 314 783Q338 783 353.5 780.5Q369 778 386 773V723Q370 728 356 730Q342 732 314 732Q237 732 197.5 684.5Q158 637 158 544V510H432V546Q432 660 502.5 731Q573 802 683 802Q717 802 753.5 795.5Q790 789 824 776V457Q853 485 898.5 503Q944 521 987 521ZM983 469Q940 469 896.5 453Q853 437 824 411V64Q849 53 878.5 47.5Q908 42 942 42Q1037 42 1093.5 103.5Q1150 165 1150 268Q1150 362 1105 415.5Q1060 469 983 469Z" glyph-name="f_f_b" horiz-adv-x="1250" /><glyph d="M158 461V0H99V461H22V510H99V544Q99 656 156.5 719.5Q214 783 314 783Q338 783 353.5 780.5Q369 778 386 773V723Q370 728 356 730Q342 732 314 732Q237 732 197.5 684.5Q158 637 158 544V510H432V546Q432 660 502.5 731Q573 802 683 802Q717 802 753.5 795.5Q790 789 824 776V456Q858 484 908 502.5Q958 521 1006 521Q1089 521 1132.5 477.5Q1176 434 1176 353V0H1116V337Q1116 406 1087 437Q1058 468 995 468Q949 468 908 454.5Q867 441 824 411V0H765V737Q745 743 726.5 746Q708 749 683 749Q594 749 542.5 695.5Q491 642 491 546V510H667L655 461H491V0H432V461Z" glyph-name="f_f_h" horiz-adv-x="1259" /><glyph d="M880 663Q861 663 848 676.5Q835 690 835 709Q835 727 848.5 740.5Q862 754 880 754Q899 754 912.5 740.5Q926 727 926 709Q926 690 912.5 676.5Q899 663 880 663ZM158 461V0H99V461H22V510H99V544Q99 656 156.5 719.5Q214 783 314 783Q338 783 353.5 780.5Q369 778 386 773V723Q370 728 356 730Q342 732 314 732Q237 732 197.5 684.5Q158 637 158 544V510H432V562Q432 675 489.5 738.5Q547 802 647 802Q668 802 684 799.5Q700 797 719 792V742Q701 747 686 749Q671 751 647 751Q570 751 530.5 703Q491 655 491 562V510H765L824 521V0H765V461H491V0H432V461Z" glyph-name="f_f_idieresis" horiz-adv-x="913" /><glyph d="M824 521V5Q822 -72 806 -122Q790 -172 746 -228H679Q724 -178 743 -126Q762 -74 765 5V461H491V0H432V461H158V0H99V461H22V510H99V544Q99 656 156.5 719.5Q214 783 314 783Q338 783 353.5 780.5Q369 778 386 773V723Q370 728 356 730Q342 732 314 732Q237 732 197.5 684.5Q158 637 158 544V510H432V535Q432 661 495.5 731.5Q559 802 670 802Q696 802 720.5 797.5Q745 793 763 785V734Q743 742 719 746.5Q695 751 670 751Q582 751 536.5 697Q491 643 491 540V510H765Z" glyph-name="f_f_j" horiz-adv-x="913" /><glyph d="M158 461V0H99V461H22V510H99V544Q99 656 156.5 719.5Q214 783 314 783Q338 783 353.5 780.5Q369 778 386 773V723Q370 728 356 730Q342 732 314 732Q237 732 197.5 684.5Q158 637 158 544V510H432V546Q432 660 502.5 731Q573 802 683 802Q717 802 753.5 795.5Q790 789 824 776V280L1086 510H1165L892 274L1200 0H1116L824 258V0H765V737Q745 743 726.5 746Q708 749 683 749Q594 749 542.5 695.5Q491 642 491 546V510H667L655 461H491V0H432V461Z" glyph-name="f_f_k" horiz-adv-x="1213" /><glyph d="M158 461V0H99V461H22V510H99V544Q99 656 156.5 719.5Q214 783 314 783Q338 783 353.5 780.5Q369 778 386 773V723Q370 728 356 730Q342 732 314 732Q237 732 197.5 684.5Q158 637 158 544V510H432V562Q432 673 485 737.5Q538 802 629 802Q639 802 649.5 801Q660 800 664 798V748Q655 750 647 750.5Q639 751 629 751Q560 751 525.5 703.5Q491 656 491 562V510H667L655 461H491V0H432V461Z" glyph-name="f_f_short" horiz-adv-x="652" /><glyph d="M322 461H158V0H99V461H22V510H99V546Q99 660 169.5 731Q240 802 350 802Q384 802 420.5 795.5Q457 789 491 776V456Q525 484 575 502.5Q625 521 673 521Q756 521 799.5 477.5Q843 434 843 353V0H783V337Q783 406 754 437Q725 468 662 468Q616 468 575 454.5Q534 441 491 411V0H432V737Q412 743 393.5 746Q375 749 350 749Q261 749 209.5 695.5Q158 642 158 546V510H334Z" glyph-name="f_h" horiz-adv-x="926" /><glyph d="M547 663Q528 663 515 676.5Q502 690 502 709Q502 727 515.5 740.5Q529 754 547 754Q566 754 579.5 740.5Q593 727 593 709Q593 690 579.5 676.5Q566 663 547 663ZM158 461V0H99V461H22V510H99V562Q99 675 156.5 738.5Q214 802 314 802Q335 802 351 799.5Q367 797 386 792V742Q368 747 353 749Q338 751 314 751Q237 751 197.5 703Q158 655 158 562V510H432L491 521V0H432V461Z" glyph-name="f_idieresis" horiz-adv-x="581" /><glyph d="M491 521V5Q489 -72 473 -122Q457 -172 413 -228H346Q391 -178 410 -126Q429 -74 432 5V461H158V0H99V461H22V510H99V535Q99 661 162.5 731.5Q226 802 337 802Q363 802 387.5 797.5Q412 793 430 785V734Q410 742 386 746.5Q362 751 337 751Q249 751 203.5 697Q158 643 158 540V510H432Z" glyph-name="f_j" horiz-adv-x="581" /><glyph d="M322 461H158V0H99V461H22V510H99V546Q99 660 169.5 731Q240 802 350 802Q384 802 420.5 795.5Q457 789 491 776V280L753 510H832L559 274L867 0H783L491 258V0H432V737Q412 743 393.5 746Q375 749 350 749Q261 749 209.5 695.5Q158 642 158 546V510H334Z" glyph-name="f_k" horiz-adv-x="881" /><glyph d="M322 461H158V0H99V461H22V510H99V562Q99 673 152 737.5Q205 802 296 802Q306 802 316.5 801Q327 800 331 798V748Q322 750 314 750.5Q306 751 296 751Q227 751 192.5 703.5Q158 656 158 562V510H334Z" glyph-name="f_short" horiz-adv-x="319" /><glyph d="M158 461V0H99V461H22V510H99V544Q99 656 156.5 719.5Q214 783 314 783Q338 783 353.5 780.5Q369 778 386 773V723Q370 728 356 730Q342 732 314 732Q237 732 197.5 684.5Q158 637 158 544V510H432V562Q432 675 489.5 738.5Q547 802 647 802Q668 802 684 799.5Q700 797 719 792V742Q701 747 686 749Q671 751 647 751Q570 751 530.5 703Q491 655 491 562V510H667L655 461H491V0H432V461Z" glyph-name="ff" horiz-adv-x="652" unicode="&#64256;" /><glyph d="M158 461V0H99V461H22V510H99V544Q99 656 156.5 719.5Q214 783 314 783Q338 783 353.5 780.5Q369 778 386 773V723Q370 728 356 730Q342 732 314 732Q237 732 197.5 684.5Q158 637 158 544V510H432V535Q432 661 495.5 731.5Q559 802 670 802Q696 802 720.5 797.5Q745 793 763 785V734Q743 742 719 746.5Q695 751 670 751Q582 751 536.5 697Q491 643 491 540V510H765L824 521V0H765V461H491V0H432V461Z" glyph-name="ffi" horiz-adv-x="913" unicode="&#64259;" /><glyph d="M158 461V0H99V461H22V510H99V544Q99 656 156.5 719.5Q214 783 314 783Q338 783 353.5 780.5Q369 778 386 773V723Q370 728 356 730Q342 732 314 732Q237 732 197.5 684.5Q158 637 158 544V510H432V546Q432 660 502.5 731Q573 802 683 802Q717 802 753.5 795.5Q790 789 824 776V0H765V737Q745 743 726.5 746Q708 749 683 749Q594 749 542.5 695.5Q491 642 491 546V510H667L655 461H491V0H432V461Z" glyph-name="ffl" horiz-adv-x="913" unicode="&#64260;" /><glyph d="M158 461V0H99V461H22V510H99V535Q99 661 162.5 731.5Q226 802 337 802Q363 802 387.5 797.5Q412 793 430 785V734Q410 742 386 746.5Q362 751 337 751Q249 751 203.5 697Q158 643 158 540V510H432L491 521V0H432V461Z" glyph-name="fi" horiz-adv-x="581" unicode="&#64257;" /><glyph d="M198 43Q292 43 351.5 91Q411 139 411 216Q411 304 337.5 353.5Q264 403 100 422L124 700H448V646H167L155 467Q298 452 384.5 388Q471 324 471 225Q471 122 392.5 55.5Q314 -11 198 -11Q146 -11 101 1.5Q56 14 18 39V99Q55 71 100 57Q145 43 198 43Z" glyph-name="five" horiz-adv-x="517" unicode="5" /><glyph d="M189 -79Q283 -79 342.5 -31Q402 17 402 94Q402 182 328.5 231.5Q255 281 91 300L115 580H439V526H158L146 345Q289 330 375.5 266Q462 202 462 103Q462 0 383 -66.5Q304 -133 188 -133Q136 -133 91.5 -120.5Q47 -108 9 -83V-23Q46 -51 91 -65Q136 -79 189 -79Z" glyph-name="five.op" horiz-adv-x="512" /><glyph d="M432 0V737Q412 743 393.5 746Q375 749 350 749Q261 749 209.5 695.5Q158 642 158 546V510H334L322 461H158V0H99V461H22V510H99V546Q99 660 169.5 731Q240 802 350 802Q384 802 420.5 795.5Q457 789 491 776V0Z" glyph-name="fl" horiz-adv-x="581" unicode="&#64258;" /><glyph d="M403 192V0H346V192H28V230Q63 340 138 478.5Q213 617 286 700H355Q281 619 212 499Q143 379 89 242H346V437H403V242H570V192Z" glyph-name="four" horiz-adv-x="590" unicode="4" /><glyph d="M385 77V-122H327V77H28V114Q62 223 137.5 359.5Q213 496 286 580H355Q280 497 210.5 378Q141 259 89 127H327V317H385V127H545V77Z" glyph-name="four.op" horiz-adv-x="565" /><glyph d="M241 220Q300 220 338 255Q376 290 376 347Q376 405 338.5 439.5Q301 474 241 474Q182 474 144 439.5Q106 405 106 347Q106 290 144.5 255Q183 220 241 220ZM493 -66Q493 -143 418.5 -191Q344 -239 236 -239Q136 -239 71 -198Q6 -157 6 -93Q6 -44 43.5 -7.5Q81 29 144 44Q130 56 122 71.5Q114 87 114 102Q114 125 129 145.5Q144 166 173 184Q115 203 81 246.5Q47 290 47 347Q47 422 103 471.5Q159 521 241 521Q258 521 275.5 518Q293 515 309 510H507L496 462H387Q410 438 422.5 408.5Q435 379 435 347Q435 272 379.5 223Q324 174 241 174Q231 174 226 174Q221 174 217 175Q190 161 176.5 146.5Q163 132 163 117Q163 99 177.5 88.5Q192 78 220 75L321 62Q414 50 453.5 19.5Q493 -11 493 -66ZM65 -87Q65 -136 111.5 -163.5Q158 -191 236 -191Q322 -191 379.5 -158.5Q437 -126 437 -72Q437 -39 411.5 -20Q386 -1 317 8L196 25Q137 14 101 -16Q65 -46 65 -87Z" glyph-name="g" horiz-adv-x="515" unicode="g" /><glyph d="M241 220Q300 220 338 255Q376 290 376 347Q376 405 338.5 439.5Q301 474 241 474Q182 474 144 439.5Q106 405 106 347Q106 290 144.5 255Q183 220 241 220ZM493 -66Q493 -143 418.5 -191Q344 -239 236 -239Q136 -239 71 -198Q6 -157 6 -93Q6 -44 43.5 -7.5Q81 29 144 44Q130 56 122 71.5Q114 87 114 102Q114 125 129 145.5Q144 166 173 184Q115 203 81 246.5Q47 290 47 347Q47 422 103 471.5Q159 521 241 521Q258 521 275.5 518Q293 515 309 510H507L496 462H387Q410 438 422.5 408.5Q435 379 435 347Q435 272 379.5 223Q324 174 241 174Q231 174 226 174Q221 174 217 175Q190 161 176.5 146.5Q163 132 163 117Q163 99 177.5 88.5Q192 78 220 75L321 62Q414 50 453.5 19.5Q493 -11 493 -66ZM65 -87Q65 -136 111.5 -163.5Q158 -191 236 -191Q322 -191 379.5 -158.5Q437 -126 437 -72Q437 -39 411.5 -20Q386 -1 317 8L196 25Q137 14 101 -16Q65 -46 65 -87ZM256 612Q193 612 156 660.5Q119 709 119 791H166Q169 729 192.5 695Q216 661 256 661Q297 661 320.5 695.5Q344 730 346 791H394Q394 709 357 660.5Q320 612 256 612Z" glyph-name="gbreve" horiz-adv-x="515" unicode="&#287;" /><glyph d="M241 220Q300 220 338 255Q376 290 376 347Q376 405 338.5 439.5Q301 474 241 474Q182 474 144 439.5Q106 405 106 347Q106 290 144.5 255Q183 220 241 220ZM493 -66Q493 -143 418.5 -191Q344 -239 236 -239Q136 -239 71 -198Q6 -157 6 -93Q6 -44 43.5 -7.5Q81 29 144 44Q130 56 122 71.5Q114 87 114 102Q114 125 129 145.5Q144 166 173 184Q115 203 81 246.5Q47 290 47 347Q47 422 103 471.5Q159 521 241 521Q258 521 275.5 518Q293 515 309 510H507L496 462H387Q410 438 422.5 408.5Q435 379 435 347Q435 272 379.5 223Q324 174 241 174Q231 174 226 174Q221 174 217 175Q190 161 176.5 146.5Q163 132 163 117Q163 99 177.5 88.5Q192 78 220 75L321 62Q414 50 453.5 19.5Q493 -11 493 -66ZM65 -87Q65 -136 111.5 -163.5Q158 -191 236 -191Q322 -191 379.5 -158.5Q437 -126 437 -72Q437 -39 411.5 -20Q386 -1 317 8L196 25Q137 14 101 -16Q65 -46 65 -87ZM120 612 230 791H285L395 612H350L257 733L164 612Z" glyph-name="gcircumflex" horiz-adv-x="515" unicode="&#285;" /><glyph d="M241 220Q300 220 338 255Q376 290 376 347Q376 405 338.5 439.5Q301 474 241 474Q182 474 144 439.5Q106 405 106 347Q106 290 144.5 255Q183 220 241 220ZM493 -66Q493 -143 418.5 -191Q344 -239 236 -239Q136 -239 71 -198Q6 -157 6 -93Q6 -44 43.5 -7.5Q81 29 144 44Q130 56 122 71.5Q114 87 114 102Q114 125 129 145.5Q144 166 173 184Q115 203 81 246.5Q47 290 47 347Q47 422 103 471.5Q159 521 241 521Q258 521 275.5 518Q293 515 309 510H507L496 462H387Q410 438 422.5 408.5Q435 379 435 347Q435 272 379.5 223Q324 174 241 174Q231 174 226 174Q221 174 217 175Q190 161 176.5 146.5Q163 132 163 117Q163 99 177.5 88.5Q192 78 220 75L321 62Q414 50 453.5 19.5Q493 -11 493 -66ZM65 -87Q65 -136 111.5 -163.5Q158 -191 236 -191Q322 -191 379.5 -158.5Q437 -126 437 -72Q437 -39 411.5 -20Q386 -1 317 8L196 25Q137 14 101 -16Q65 -46 65 -87ZM256 663Q237 663 224 676.5Q211 690 211 709Q211 727 224.5 740.5Q238 754 256 754Q275 754 288.5 740.5Q302 727 302 709Q302 690 288.5 676.5Q275 663 256 663Z" glyph-name="gdotaccent" horiz-adv-x="515" unicode="&#289;" /><glyph d="M323 803Q411 803 463.5 752Q516 701 520 618Q427 551 391.5 509.5Q356 468 356 430Q356 404 374 379.5Q392 355 451 312Q527 256 551.5 218.5Q576 181 576 138Q576 72 523 30.5Q470 -11 391 -11Q356 -11 321.5 -3.5Q287 4 257 19V80Q290 60 322.5 50.5Q355 41 391 41Q447 41 483 66Q519 91 519 131Q519 161 499.5 189Q480 217 417 264Q345 317 322 352Q299 387 299 427Q299 457 312.5 486Q326 515 355 547Q368 561 385.5 577.5Q403 594 455 639Q454 686 417 719Q380 752 323 752Q248 752 203 701Q158 650 158 563V0H99V563Q99 674 160.5 738.5Q222 803 323 803Z" glyph-name="germandbls" horiz-adv-x="619" unicode="&#223;" /><glyph d="M267 791 338 612H301L185 791Z" glyph-name="grave" horiz-adv-x="523" unicode="`" /><glyph d="M242 927 379 776H323L144 927Z" glyph-name="grave.cap" horiz-adv-x="523" /><glyph d="M83 188 499 337 83 487V548L566 366V308L83 126Z" glyph-name="greater" horiz-adv-x="601" unicode="&gt;" /><glyph d="M435 463 315 253 435 45H392L234 253L392 463ZM244 463 124 253 244 45H201L43 253L201 463Z" glyph-name="guillemotleft" horiz-adv-x="478" unicode="&#171;" /><glyph d="M85 45H43L163 253L43 463H85L244 253ZM276 45H234L354 253L234 463H276L435 253Z" glyph-name="guillemotright" horiz-adv-x="478" unicode="&#187;" /><glyph d="M244 463 124 253 244 45H201L43 253L201 463Z" glyph-name="guilsinglleft" horiz-adv-x="287" unicode="&#8249;" /><glyph d="M85 45H43L163 253L43 463H85L244 253Z" glyph-name="guilsinglright" horiz-adv-x="287" unicode="&#8250;" /><glyph d="M90 0V791L149 802V456Q185 485 234.5 503Q284 521 331 521Q414 521 457.5 477.5Q501 434 501 353V0H442V337Q442 406 413 437Q384 468 321 468Q275 468 233.5 454.5Q192 441 149 411V0Z" glyph-name="h" horiz-adv-x="585" unicode="h" /><glyph d="M321 468Q275 468 233.5 454.5Q192 441 149 411V0H90V629H8V672H90V791L149 802V672H320V629H149V456Q185 485 234.5 503Q284 521 331 521Q414 521 457.5 477.5Q501 434 501 353V0H442V337Q442 406 413 437Q384 468 321 468Z" glyph-name="hbar" horiz-adv-x="585" unicode="&#295;" /><glyph d="M90 0V791L149 802V456Q185 485 234.5 503Q284 521 331 521Q414 521 457.5 477.5Q501 434 501 353V0H442V337Q442 406 413 437Q384 468 321 468Q275 468 233.5 454.5Q192 441 149 411V0ZM166 831 295 982H350L478 831H433L322 925L211 831Z" glyph-name="hcircumflex" horiz-adv-x="585" unicode="&#293;" /><glyph d="M142 612H104L175 791H256ZM306 612H268L339 791H420Z" glyph-name="hungarumlaut" horiz-adv-x="523" unicode="&#733;" /><glyph d="M124 776H78L195 927H283ZM297 776H251L368 927H456Z" glyph-name="hungarumlaut.cap" horiz-adv-x="523" /><glyph d="M330 250H70V301H330Z" glyph-name="hyphen" horiz-adv-x="400" unicode="-" /><glyph d="M120 663Q101 663 88 676.5Q75 690 75 709Q75 727 88.5 740.5Q102 754 120 754Q139 754 152.5 740.5Q166 727 166 709Q166 690 152.5 676.5Q139 663 120 663ZM149 0H90V502L149 514Z" glyph-name="i" horiz-adv-x="239" unicode="i" /><glyph d="M149 0H90V502L149 514ZM249 791 132 612H96L167 791Z" glyph-name="iacute" horiz-adv-x="239" unicode="&#237;" /><glyph d="M149 0H90V502L149 514ZM119 612Q56 612 19 660.5Q-18 709 -18 791H29Q32 729 55.5 695Q79 661 119 661Q160 661 183.5 695.5Q207 730 209 791H257Q257 709 220 660.5Q183 612 119 612Z" glyph-name="ibreve" horiz-adv-x="239" unicode="&#301;" /><glyph d="M149 0H90V502L149 514ZM-18 612 92 791H147L257 612H212L119 733L26 612Z" glyph-name="icircumflex" horiz-adv-x="239" unicode="&#238;" /><glyph d="M149 0H90V502L149 514ZM206 663Q187 663 173.5 676.5Q160 690 160 709Q160 727 173.5 740.5Q187 754 206 754Q224 754 237.5 740.5Q251 727 251 709Q251 690 237.5 676.5Q224 663 206 663ZM33 663Q14 663 0.5 676.5Q-13 690 -13 709Q-13 727 0.5 740.5Q14 754 33 754Q51 754 64.5 740.5Q78 727 78 709Q78 690 64.5 676.5Q51 663 33 663Z" glyph-name="idieresis" horiz-adv-x="239" unicode="&#239;" /><glyph d="M149 0H90V502L149 514ZM119 663Q100 663 87 676.5Q74 690 74 709Q74 727 87.5 740.5Q101 754 119 754Q138 754 151.5 740.5Q165 727 165 709Q165 690 151.5 676.5Q138 663 119 663Z" glyph-name="idotaccent" horiz-adv-x="239" /><glyph d="M149 0H90V502L149 514ZM73 791 144 612H107L-9 791Z" glyph-name="igrave" horiz-adv-x="239" unicode="&#236;" /><glyph d="M149 0H90V502L149 514ZM252 706V656H-14V706Z" glyph-name="imacron" horiz-adv-x="239" unicode="&#299;" /><glyph d="M120 663Q101 663 88 676.5Q75 690 75 709Q75 727 88.5 740.5Q102 754 120 754Q139 754 152.5 740.5Q166 727 166 709Q166 690 152.5 676.5Q139 663 120 663ZM147 -186V-232Q136 -236 127 -237.5Q118 -239 107 -239Q67 -239 40.5 -214.5Q14 -190 14 -148Q14 -109 31.5 -74.5Q49 -40 90 0V502L149 514V0Q107 -34 86 -69Q65 -104 65 -139Q65 -163 78.5 -178Q92 -193 112 -193Q122 -193 129 -191.5Q136 -190 147 -186Z" glyph-name="iogonek" horiz-adv-x="239" unicode="&#303;" /><glyph d="M149 0H90V502L149 514ZM184 627Q167 627 150.5 638Q134 649 107 685Q83 714 71 723Q59 732 48 732Q28 732 16 709Q4 686 -4 627H-49Q-46 699 -18 744Q10 789 55 789Q72 789 88.5 777.5Q105 766 133 731Q155 702 167 693Q179 684 190 684Q211 684 223 708.5Q235 733 242 789H288Q285 716 257 671.5Q229 627 184 627Z" glyph-name="itilde" horiz-adv-x="239" unicode="&#297;" /><glyph d="M120 663Q101 663 88 676.5Q75 690 75 709Q75 727 88.5 740.5Q102 754 120 754Q139 754 152.5 740.5Q166 727 166 709Q166 690 152.5 676.5Q139 663 120 663ZM149 514V5Q147 -71 131.5 -121Q116 -171 71 -228H4Q49 -179 68 -127Q87 -75 90 5V502Z" glyph-name="j" horiz-adv-x="239" unicode="j" /><glyph d="M149 514V5Q147 -71 131.5 -121Q116 -171 71 -228H4Q49 -179 68 -127Q87 -75 90 5V502ZM-16 612 94 791H149L259 612H214L121 733L28 612Z" glyph-name="jcircumflex" horiz-adv-x="239" unicode="&#309;" /><glyph d="M525 0H442L149 258V0H90V791L149 802V280L412 510H490L218 274Z" glyph-name="k" horiz-adv-x="539" unicode="k" /><glyph d="M525 0H443L149 258V0H90V508L149 519V279L413 510H490L214 273Z" glyph-name="kgreenlandic" horiz-adv-x="539" unicode="&#312;" /><glyph d="M149 0H90V791L149 802Z" glyph-name="l" horiz-adv-x="239" unicode="l" /><glyph d="M149 0H90V791L149 802ZM323 982 143 831H88L224 982Z" glyph-name="lacute" horiz-adv-x="239" unicode="&#314;" /><glyph d="M149 0H90V791L149 802ZM268 539H226L251 791H321Z" glyph-name="lcaron" horiz-adv-x="309" unicode="&#318;" /><glyph d="M149 0H90V791L149 802ZM297 355Q278 355 265 368.5Q252 382 252 401Q252 419 265.5 432.5Q279 446 297 446Q316 446 329.5 432.5Q343 419 343 401Q343 382 329.5 368.5Q316 355 297 355Z" glyph-name="ldot" horiz-adv-x="334" unicode="&#320;" /><glyph d="M542 126 59 308V366L542 548V487L126 337L542 188Z" glyph-name="less" horiz-adv-x="601" unicode="&lt;" /><glyph d="M162 390V0H103V355L6 288V347L103 414V791L162 802V450L266 521V462Z" glyph-name="lslash" horiz-adv-x="272" unicode="&#322;" /><glyph d="M149 411V0H90V502L149 514V457Q180 484 228 502.5Q276 521 321 521Q372 521 408 502Q444 483 464 446Q501 478 553.5 499.5Q606 521 655 521Q733 521 776 477Q819 433 819 353V0H760V337Q760 406 732 437Q704 468 645 468Q601 468 560.5 453Q520 438 478 406Q481 394 482.5 380.5Q484 367 484 353V0H425V337Q425 406 397.5 437Q370 468 310 468Q267 468 228 454.5Q189 441 149 411Z" glyph-name="m" horiz-adv-x="903" unicode="m" /><glyph d="M394 706V656H128V706Z" glyph-name="macron" horiz-adv-x="523" unicode="&#175;" /><glyph d="M413 852V802H110V852Z" glyph-name="macron.cap" horiz-adv-x="523" /><glyph d="M555 303H46V356H555Z" glyph-name="minus" horiz-adv-x="601" unicode="&#8722;" /><glyph d="M525 143 487 106 301 293 114 106 76 143 263 330 76 517 114 554 301 368 487 554 525 517 338 330Z" glyph-name="multiply" horiz-adv-x="601" unicode="&#215;" /><glyph d="M90 0V502L149 514V456Q185 485 234.5 503Q284 521 331 521Q414 521 457.5 477.5Q501 434 501 353V0H442V337Q442 406 413 437Q384 468 321 468Q275 468 233.5 454.5Q192 441 149 411V0Z" glyph-name="n" horiz-adv-x="585" unicode="n" /><glyph d="M90 0V502L149 514V456Q185 485 234.5 503Q284 521 331 521Q414 521 457.5 477.5Q501 434 501 353V0H442V337Q442 406 413 437Q384 468 321 468Q275 468 233.5 454.5Q192 441 149 411V0ZM436 791 319 612H283L354 791Z" glyph-name="nacute" horiz-adv-x="585" unicode="&#324;" /><glyph d="M90 0V502L149 514V456Q185 485 234.5 503Q284 521 331 521Q414 521 457.5 477.5Q501 434 501 353V0H442V337Q442 406 413 437Q384 468 321 468Q275 468 233.5 454.5Q192 441 149 411V0ZM445 791 335 612H280L170 791H214L307 670L400 791Z" glyph-name="ncaron" horiz-adv-x="585" unicode="&#328;" /><glyph d="M259 288Q164 288 102.5 344Q41 400 41 491Q41 587 104 649Q167 711 263 711Q372 711 444 620.5Q516 530 516 390Q516 214 416.5 101.5Q317 -11 163 -11Q132 -11 103 -6Q74 -1 53 8V58Q78 49 105.5 45Q133 41 163 41Q294 41 374.5 136.5Q455 232 455 390Q455 392 455 394.5Q455 397 455 399Q426 350 370 319Q314 288 259 288ZM452 443Q440 541 388 600Q336 659 263 659Q188 659 143.5 616Q99 573 99 499Q99 427 145.5 382.5Q192 338 266 338Q319 338 371 367.5Q423 397 452 443Z" glyph-name="nine" horiz-adv-x="559" unicode="9" /><glyph d="M259 168Q164 168 102.5 224Q41 280 41 371Q41 467 104 529Q167 591 263 591Q372 591 444 500.5Q516 410 516 270Q516 94 416.5 -18.5Q317 -131 163 -131Q129 -131 97.5 -125Q66 -119 44 -108V-59Q69 -69 99 -74Q129 -79 163 -79Q294 -79 374.5 16.5Q455 112 455 270Q455 272 455 274.5Q455 277 455 279Q426 230 370 199Q314 168 259 168ZM452 323Q440 421 388 480Q336 539 263 539Q188 539 143.5 496Q99 453 99 379Q99 307 145.5 262.5Q192 218 266 218Q319 218 371 247.5Q423 277 452 323Z" glyph-name="nine.op" horiz-adv-x="559" /><glyph d="M90 0V502L149 514V456Q185 485 234.5 503Q284 521 331 521Q414 521 457.5 477.5Q501 434 501 353V0H442V337Q442 406 413 437Q384 468 321 468Q275 468 233.5 454.5Q192 441 149 411V0ZM367 627Q350 627 333.5 638Q317 649 290 685Q266 714 254 723Q242 732 231 732Q211 732 199 709Q187 686 179 627H134Q137 699 165 744Q193 789 238 789Q255 789 271.5 777.5Q288 766 316 731Q338 702 350 693Q362 684 373 684Q394 684 406 708.5Q418 733 425 789H471Q468 716 440 671.5Q412 627 367 627Z" glyph-name="ntilde" horiz-adv-x="585" unicode="&#241;" /><glyph d="M262 274H408L436 439H290ZM423 55H371L400 224H253L224 55H171L200 224H52L61 274H208L236 439H79L88 490H245L272 650H326L299 490H445L472 650H525L498 490H643L634 439H489L461 274H618L608 224H452Z" glyph-name="numbersign" horiz-adv-x="695" unicode="#" /><glyph d="M277 -11Q177 -11 109.5 64.5Q42 140 42 255Q42 370 109.5 445.5Q177 521 277 521Q377 521 444.5 445.5Q512 370 512 255Q512 140 444.5 64.5Q377 -11 277 -11ZM277 43Q355 43 404 102Q453 161 453 255Q453 349 404 408Q355 467 277 467Q199 467 150 408Q101 349 101 255Q101 161 150 102Q199 43 277 43Z" glyph-name="o" horiz-adv-x="554" unicode="o" /><glyph d="M277 -11Q177 -11 109.5 64.5Q42 140 42 255Q42 370 109.5 445.5Q177 521 277 521Q377 521 444.5 445.5Q512 370 512 255Q512 140 444.5 64.5Q377 -11 277 -11ZM277 43Q355 43 404 102Q453 161 453 255Q453 349 404 408Q355 467 277 467Q199 467 150 408Q101 349 101 255Q101 161 150 102Q199 43 277 43ZM406 791 289 612H253L324 791Z" glyph-name="oacute" horiz-adv-x="554" unicode="&#243;" /><glyph d="M277 -11Q177 -11 109.5 64.5Q42 140 42 255Q42 370 109.5 445.5Q177 521 277 521Q377 521 444.5 445.5Q512 370 512 255Q512 140 444.5 64.5Q377 -11 277 -11ZM277 43Q355 43 404 102Q453 161 453 255Q453 349 404 408Q355 467 277 467Q199 467 150 408Q101 349 101 255Q101 161 150 102Q199 43 277 43ZM276 612Q213 612 176 660.5Q139 709 139 791H186Q189 729 212.5 695Q236 661 276 661Q317 661 340.5 695.5Q364 730 366 791H414Q414 709 377 660.5Q340 612 276 612Z" glyph-name="obreve" horiz-adv-x="554" unicode="&#335;" /><glyph d="M277 -11Q177 -11 109.5 64.5Q42 140 42 255Q42 370 109.5 445.5Q177 521 277 521Q377 521 444.5 445.5Q512 370 512 255Q512 140 444.5 64.5Q377 -11 277 -11ZM277 43Q355 43 404 102Q453 161 453 255Q453 349 404 408Q355 467 277 467Q199 467 150 408Q101 349 101 255Q101 161 150 102Q199 43 277 43ZM140 612 250 791H305L415 612H370L277 733L184 612Z" glyph-name="ocircumflex" horiz-adv-x="554" unicode="&#244;" /><glyph d="M277 -11Q177 -11 109.5 64.5Q42 140 42 255Q42 370 109.5 445.5Q177 521 277 521Q377 521 444.5 445.5Q512 370 512 255Q512 140 444.5 64.5Q377 -11 277 -11ZM277 43Q355 43 404 102Q453 161 453 255Q453 349 404 408Q355 467 277 467Q199 467 150 408Q101 349 101 255Q101 161 150 102Q199 43 277 43ZM363 663Q344 663 330.5 676.5Q317 690 317 709Q317 727 330.5 740.5Q344 754 363 754Q381 754 394.5 740.5Q408 727 408 709Q408 690 394.5 676.5Q381 663 363 663ZM190 663Q171 663 157.5 676.5Q144 690 144 709Q144 727 157.5 740.5Q171 754 190 754Q208 754 221.5 740.5Q235 727 235 709Q235 690 221.5 676.5Q208 663 190 663Z" glyph-name="odieresis" horiz-adv-x="554" unicode="&#246;" /><glyph d="M675 469Q609 469 564.5 425.5Q520 382 508 305H817Q816 382 779 425.5Q742 469 675 469ZM277 43Q355 43 404 102Q453 161 453 256Q453 350 404.5 408.5Q356 467 277 467Q198 467 149.5 408.5Q101 350 101 256Q101 161 150 102Q199 43 277 43ZM862 80V22Q828 6 789.5 -2.5Q751 -11 709 -11Q637 -11 577 25Q517 61 481 124Q450 62 395 25.5Q340 -11 277 -11Q177 -11 109.5 65Q42 141 42 256Q42 371 109.5 446Q177 521 277 521Q339 521 393 486.5Q447 452 479 392Q510 452 562 486.5Q614 521 675 521Q778 521 830.5 450.5Q883 380 876 259H505V257Q505 163 562.5 103Q620 43 709 43Q761 43 793.5 51.5Q826 60 862 80Z" glyph-name="oe" horiz-adv-x="920" unicode="&#339;" /><glyph d="M251 -148Q251 -105 274 -66Q297 -27 363 34L385 8Q337 -44 319.5 -75.5Q302 -107 302 -139Q302 -163 316 -178Q330 -193 350 -193Q360 -193 367 -191.5Q374 -190 385 -186V-232Q373 -236 364 -237.5Q355 -239 345 -239Q304 -239 277.5 -214.5Q251 -190 251 -148Z" glyph-name="ogonek" horiz-adv-x="523" unicode="&#731;" /><glyph d="M277 -11Q177 -11 109.5 64.5Q42 140 42 255Q42 370 109.5 445.5Q177 521 277 521Q377 521 444.5 445.5Q512 370 512 255Q512 140 444.5 64.5Q377 -11 277 -11ZM277 43Q355 43 404 102Q453 161 453 255Q453 349 404 408Q355 467 277 467Q199 467 150 408Q101 349 101 255Q101 161 150 102Q199 43 277 43ZM231 791 302 612H265L149 791Z" glyph-name="ograve" horiz-adv-x="554" unicode="&#242;" /><glyph d="M277 -11Q177 -11 109.5 64.5Q42 140 42 255Q42 370 109.5 445.5Q177 521 277 521Q377 521 444.5 445.5Q512 370 512 255Q512 140 444.5 64.5Q377 -11 277 -11ZM277 43Q355 43 404 102Q453 161 453 255Q453 349 404 408Q355 467 277 467Q199 467 150 408Q101 349 101 255Q101 161 150 102Q199 43 277 43ZM208 612H170L241 791H322ZM372 612H334L405 791H486Z" glyph-name="ohungarumlaut" horiz-adv-x="554" unicode="&#337;" /><glyph d="M277 -11Q177 -11 109.5 64.5Q42 140 42 255Q42 370 109.5 445.5Q177 521 277 521Q377 521 444.5 445.5Q512 370 512 255Q512 140 444.5 64.5Q377 -11 277 -11ZM277 43Q355 43 404 102Q453 161 453 255Q453 349 404 408Q355 467 277 467Q199 467 150 408Q101 349 101 255Q101 161 150 102Q199 43 277 43ZM409 706V656H143V706Z" glyph-name="omacron" horiz-adv-x="554" unicode="&#333;" /><glyph d="M278 711V0H219V641L34 569V618L242 711Z" glyph-name="one" horiz-adv-x="398" unicode="1" /><glyph d="M280 585V0H221V515L36 443V491L244 585Z" glyph-name="one.op" horiz-adv-x="401" /><glyph d="M161 707V337H107V643L14 610V656L136 707Z" glyph-name="onesuperior" horiz-adv-x="231" unicode="&#185;" /><glyph d="M95 455Q95 432 111.5 418.5Q128 405 156 405Q181 405 200.5 412Q220 419 248 441V531Q165 527 130 509.5Q95 492 95 455ZM304 372H254L248 409Q223 386 197.5 375Q172 364 144 364Q101 364 73 388.5Q45 413 45 453Q45 509 95 537.5Q145 566 248 569V589Q248 631 231 648.5Q214 666 176 666Q147 666 120.5 658.5Q94 651 64 633V678Q86 693 117 702.5Q148 712 176 712Q235 712 266 684Q297 656 297 603V433Q297 420 297.5 410.5Q298 401 304 372ZM302 266H55V309H302Z" glyph-name="ordfeminine" horiz-adv-x="362" unicode="&#170;" /><glyph d="M43 540Q43 615 87 663.5Q131 712 196 712Q261 712 305 663.5Q349 615 349 540Q349 465 305 416.5Q261 368 196 368Q131 368 87 416.5Q43 465 43 540ZM196 665Q150 665 121.5 630Q93 595 93 540Q93 485 121.5 450Q150 415 196 415Q242 415 270.5 450Q299 485 299 540Q299 595 270.5 630Q242 665 196 665ZM73 309H320V266H73Z" glyph-name="ordmasculine" horiz-adv-x="391" unicode="&#186;" /><glyph d="M277 467Q199 467 150 408Q101 349 101 255Q101 212 112.5 174Q124 136 145 108L375 436Q354 451 329.5 459Q305 467 277 467ZM277 43Q355 43 404 102Q453 161 453 255Q453 299 441.5 337Q430 375 408 404L177 76Q198 60 223.5 51.5Q249 43 277 43ZM512 255Q512 140 444.5 64.5Q377 -11 277 -11Q241 -11 207.5 0Q174 11 146 32L98 -36H43L112 62Q78 99 60 148.5Q42 198 42 255Q42 370 109.5 445.5Q177 521 277 521Q311 521 344.5 510.5Q378 500 406 480L453 547H509L440 450Q475 413 493.5 363Q512 313 512 255Z" glyph-name="oslash" horiz-adv-x="554" unicode="&#248;" /><glyph d="M277 467Q199 467 150 408Q101 349 101 255Q101 212 112.5 174Q124 136 145 108L375 436Q354 451 329.5 459Q305 467 277 467ZM277 43Q355 43 404 102Q453 161 453 255Q453 299 441.5 337Q430 375 408 404L177 76Q198 60 223.5 51.5Q249 43 277 43ZM512 255Q512 140 444.5 64.5Q377 -11 277 -11Q241 -11 207.5 0Q174 11 146 32L98 -36H43L112 62Q78 99 60 148.5Q42 198 42 255Q42 370 109.5 445.5Q177 521 277 521Q311 521 344.5 510.5Q378 500 406 480L453 547H509L440 450Q475 413 493.5 363Q512 313 512 255ZM405 791 288 612H252L323 791Z" glyph-name="oslashacute" horiz-adv-x="554" unicode="&#511;" /><glyph d="M277 -11Q177 -11 109.5 64.5Q42 140 42 255Q42 370 109.5 445.5Q177 521 277 521Q377 521 444.5 445.5Q512 370 512 255Q512 140 444.5 64.5Q377 -11 277 -11ZM277 43Q355 43 404 102Q453 161 453 255Q453 349 404 408Q355 467 277 467Q199 467 150 408Q101 349 101 255Q101 161 150 102Q199 43 277 43ZM346 627Q329 627 312.5 638Q296 649 269 685Q245 714 233 723Q221 732 210 732Q190 732 178 709Q166 686 158 627H113Q116 699 144 744Q172 789 217 789Q234 789 250.5 777.5Q267 766 295 731Q317 702 329 693Q341 684 352 684Q373 684 385 708.5Q397 733 404 789H450Q447 716 419 671.5Q391 627 346 627Z" glyph-name="otilde" horiz-adv-x="554" unicode="&#245;" /><glyph d="M309 468Q265 468 222 452.5Q179 437 149 411V74Q169 56 202.5 46.5Q236 37 275 37Q366 37 420.5 100.5Q475 164 475 268Q475 361 430.5 414.5Q386 468 309 468ZM149 21V-228H90V502L149 514V458Q179 485 224 503Q269 521 312 521Q414 521 474.5 453Q535 385 535 268Q535 144 462 66.5Q389 -11 275 -11Q239 -11 204 -2.5Q169 6 149 21Z" glyph-name="p" horiz-adv-x="576" unicode="p" /><glyph d="M401 652V69Q401 -24 381 -87.5Q361 -151 310 -210H234Q293 -148 316.5 -85Q340 -22 340 69V701H507V652ZM24 501Q24 586 84.5 643.5Q145 701 229 701H265V307H229Q143 307 83.5 362Q24 417 24 501Z" glyph-name="paragraph" horiz-adv-x="513" unicode="&#182;" /><glyph d="M142 334Q142 213 201.5 89.5Q261 -34 357 -122H290Q191 -28 135 91Q79 210 79 334Q79 458 135 577.5Q191 697 290 791H357Q261 703 201.5 579.5Q142 456 142 334Z" glyph-name="parenleft" horiz-adv-x="363" unicode="(" /><glyph d="M221 334Q221 456 161.5 579.5Q102 703 6 791H73Q172 697 228 577.5Q284 458 284 334Q284 210 228 91Q172 -28 73 -122H6Q102 -34 161.5 89.5Q221 213 221 334Z" glyph-name="parenright" horiz-adv-x="363" unicode=")" /><glyph d="M570 712H625L170 -11H116ZM50 546Q50 620 90 666Q130 712 194 712Q258 712 298 665.5Q338 619 338 546Q338 472 298 425Q258 378 194 378Q130 378 90 424.5Q50 471 50 546ZM194 666Q151 666 124.5 631.5Q98 597 98 546Q98 494 124.5 459.5Q151 425 194 425Q237 425 263.5 459.5Q290 494 290 546Q290 597 263.5 631.5Q237 666 194 666ZM689 156Q689 82 649.5 35.5Q610 -11 546 -11Q482 -11 442 35.5Q402 82 402 156Q402 230 442 276.5Q482 323 546 323Q610 323 649.5 276.5Q689 230 689 156ZM641 156Q641 208 614.5 242.5Q588 277 546 277Q503 277 476.5 243Q450 209 450 156Q450 104 476.5 70Q503 36 546 36Q589 36 615 70Q641 104 641 156Z" glyph-name="percent" horiz-adv-x="739" unicode="%" /><glyph d="M109 -4Q89 -4 75 10.5Q61 25 61 46Q61 66 75 80.5Q89 95 109 95Q129 95 143 80.5Q157 66 157 46Q157 25 143 10.5Q129 -4 109 -4Z" glyph-name="period" horiz-adv-x="218" unicode="." /><glyph d="M118 226Q98 226 84 240.5Q70 255 70 276Q70 296 84 310.5Q98 325 118 325Q138 325 152 310.5Q166 296 166 276Q166 255 152 240.5Q138 226 118 226Z" glyph-name="periodcentered" horiz-adv-x="237" unicode="&#183;" /><glyph d="M555 356V303H327V76H274V303H46V356H274V584H327V356Z" glyph-name="plus" horiz-adv-x="601" unicode="+" /><glyph d="M427 490 486 517V-228H427V56Q392 24 351.5 6.5Q311 -11 269 -11Q166 -11 104.5 57Q43 125 43 242Q43 366 115.5 443.5Q188 521 302 521Q338 521 372 512.5Q406 504 427 490ZM270 41Q312 41 351.5 57Q391 73 427 105V436Q407 454 373.5 463.5Q340 473 302 473Q211 473 156.5 409.5Q102 346 102 242Q102 149 147.5 95Q193 41 270 41Z" glyph-name="q" horiz-adv-x="576" unicode="q" /><glyph d="M285 385Q335 439 350 467.5Q365 496 365 525Q365 586 327.5 621Q290 656 223 656Q170 656 117 632Q64 608 24 567V630Q61 667 115.5 689Q170 711 224 711Q316 711 370.5 659Q425 607 425 524Q425 487 407.5 452Q390 417 334 360Q286 310 269.5 282Q253 254 249 225H192Q196 260 214 293.5Q232 327 285 385ZM219 -4Q199 -4 185 10.5Q171 25 171 46Q171 66 185 80.5Q199 95 219 95Q240 95 254 81Q268 67 268 46Q268 25 254 10.5Q240 -4 219 -4Z" glyph-name="question" horiz-adv-x="450" unicode="?" /><glyph d="M165 316Q115 262 100 233.5Q85 205 85 176Q85 115 122.5 80Q160 45 227 45Q280 45 333 69Q386 93 426 134V71Q389 34 334.5 12Q280 -10 226 -10Q134 -10 79.5 42Q25 94 25 177Q25 214 42.5 249Q60 284 116 341Q164 391 180.5 419Q197 447 201 476H258Q254 441 236 407.5Q218 374 165 316ZM231 705Q251 705 265 690.5Q279 676 279 655Q279 635 265 620.5Q251 606 231 606Q210 606 196 620Q182 634 182 655Q182 676 196 690.5Q210 705 231 705Z" glyph-name="questiondown" horiz-adv-x="450" unicode="&#191;" /><glyph d="M247 433H216V701H291ZM92 433H61V701H136Z" glyph-name="quotedbl" horiz-adv-x="352" unicode="&quot;" /><glyph d="M95 93H157Q157 36 136.5 -24Q116 -84 86 -124H43Q65 -86 80 -25Q95 36 95 93ZM243 93H305Q305 36 284.5 -24Q264 -84 234 -124H191Q213 -86 228 -25Q243 36 243 93Z" glyph-name="quotedblbase" horiz-adv-x="384" unicode="&#8222;" /><glyph d="M290 496H227Q227 552 247.5 612Q268 672 298 712H342Q319 673 304.5 612.5Q290 552 290 496ZM142 496H79Q79 552 99.5 612Q120 672 150 712H194Q171 673 156.5 612.5Q142 552 142 496Z" glyph-name="quotedblleft" horiz-adv-x="385" unicode="&#8220;" /><glyph d="M95 712H157Q157 655 136 594.5Q115 534 86 496H43Q66 535 80.5 595.5Q95 656 95 712ZM243 712H305Q305 655 284 594.5Q263 534 234 496H191Q214 535 228.5 595.5Q243 656 243 712Z" glyph-name="quotedblright" horiz-adv-x="385" unicode="&#8221;" /><glyph d="M142 496H79Q79 552 99.5 612Q120 672 150 712H194Q171 673 156.5 612.5Q142 552 142 496Z" glyph-name="quoteleft" horiz-adv-x="237" unicode="&#8216;" /><glyph d="M95 712H157Q157 655 136 594.5Q115 534 86 496H43Q66 535 80.5 595.5Q95 656 95 712Z" glyph-name="quoteright" horiz-adv-x="237" unicode="&#8217;" /><glyph d="M95 93H157Q157 36 136.5 -24Q116 -84 86 -124H43Q65 -86 80 -25Q95 36 95 93Z" glyph-name="quotesinglbase" horiz-adv-x="237" unicode="&#8218;" /><glyph d="M92 433H61V701H136Z" glyph-name="quotesingle" horiz-adv-x="197" unicode="'" /><glyph d="M149 378V0H90V502L149 514V425Q189 476 243.5 500Q298 524 357 515V456Q300 467 248 447.5Q196 428 149 378Z" glyph-name="r" horiz-adv-x="374" unicode="r" /><glyph d="M149 378V0H90V502L149 514V425Q189 476 243.5 500Q298 524 357 515V456Q300 467 248 447.5Q196 428 149 378ZM363 791 246 612H210L281 791Z" glyph-name="racute" horiz-adv-x="374" unicode="&#341;" /><glyph d="M149 378V0H90V502L149 514V425Q189 476 243.5 500Q298 524 357 515V456Q300 467 248 447.5Q196 428 149 378ZM371 791 261 612H206L96 791H140L233 670L326 791Z" glyph-name="rcaron" horiz-adv-x="374" unicode="&#345;" /><glyph d="M34 351Q34 505 138 608.5Q242 712 395 712Q548 712 651.5 609Q755 506 755 351Q755 196 651.5 92.5Q548 -11 395 -11Q242 -11 138 92.5Q34 196 34 351ZM81 351Q81 216 171.5 125.5Q262 35 395 35Q527 35 617.5 125.5Q708 216 708 351Q708 486 618 576.5Q528 667 395 667Q262 667 171.5 576.5Q81 486 81 351ZM380 503H326V365H409Q438 374 452.5 391.5Q467 409 467 436Q467 469 444.5 486Q422 503 380 503ZM446 330 566 165H499L393 317H326V165H272V552H383Q451 552 488.5 521.5Q526 491 526 436Q526 401 503.5 372Q481 343 446 330Z" glyph-name="registered" horiz-adv-x="789" unicode="&#174;" /><glyph d="M241 802Q284 802 314.5 771.5Q345 741 345 699Q345 656 314.5 625.5Q284 595 241 595Q199 595 168.5 625.5Q138 656 138 699Q138 741 168.5 771.5Q199 802 241 802ZM241 762Q217 762 198.5 743Q180 724 180 699Q180 673 198 654Q216 635 241 635Q267 635 285 653.5Q303 672 303 699Q303 724 285 743Q267 762 241 762Z" glyph-name="ring" horiz-adv-x="523" unicode="&#730;" /><glyph d="M373 853Q373 806 339.5 772Q306 738 260 738Q214 738 180.5 772Q147 806 147 853Q147 899 180.5 932.5Q214 966 260 966Q306 966 339.5 932.5Q373 899 373 853ZM193 853Q193 824 212.5 803.5Q232 783 260 783Q288 783 308 803.5Q328 824 328 853Q328 881 308 901.5Q288 922 260 922Q233 922 213 901.5Q193 881 193 853Z" glyph-name="ring.cap" horiz-adv-x="523" /><glyph d="M199 -11Q152 -11 111 -0.5Q70 10 42 29V92Q77 66 114.5 53.5Q152 41 199 41Q255 41 291.5 66Q328 91 328 131Q328 161 306.5 182.5Q285 204 212 232Q122 266 93 299Q64 332 64 380Q64 441 112.5 481Q161 521 235 521Q266 521 295.5 514.5Q325 508 355 495V433Q324 451 294.5 460Q265 469 235 469Q184 469 152.5 445.5Q121 422 121 383Q121 353 143 331.5Q165 310 238 282Q327 248 355.5 216Q384 184 384 138Q384 71 331.5 30Q279 -11 199 -11Z" glyph-name="s" horiz-adv-x="442" unicode="s" /><glyph d="M199 -11Q152 -11 111 -0.5Q70 10 42 29V92Q77 66 114.5 53.5Q152 41 199 41Q255 41 291.5 66Q328 91 328 131Q328 161 306.5 182.5Q285 204 212 232Q122 266 93 299Q64 332 64 380Q64 441 112.5 481Q161 521 235 521Q266 521 295.5 514.5Q325 508 355 495V433Q324 451 294.5 460Q265 469 235 469Q184 469 152.5 445.5Q121 422 121 383Q121 353 143 331.5Q165 310 238 282Q327 248 355.5 216Q384 184 384 138Q384 71 331.5 30Q279 -11 199 -11ZM362 791 245 612H209L280 791Z" glyph-name="sacute" horiz-adv-x="442" unicode="&#347;" /><glyph d="M199 -11Q152 -11 111 -0.5Q70 10 42 29V92Q77 66 114.5 53.5Q152 41 199 41Q255 41 291.5 66Q328 91 328 131Q328 161 306.5 182.5Q285 204 212 232Q122 266 93 299Q64 332 64 380Q64 441 112.5 481Q161 521 235 521Q266 521 295.5 514.5Q325 508 355 495V433Q324 451 294.5 460Q265 469 235 469Q184 469 152.5 445.5Q121 422 121 383Q121 353 143 331.5Q165 310 238 282Q327 248 355.5 216Q384 184 384 138Q384 71 331.5 30Q279 -11 199 -11ZM370 791 260 612H205L95 791H139L232 670L325 791Z" glyph-name="scaron" horiz-adv-x="442" unicode="&#353;" /><glyph d="M199 -11Q152 -11 111 -0.5Q70 10 42 29V92Q77 66 114.5 53.5Q152 41 199 41Q255 41 291.5 66Q328 91 328 131Q328 161 306.5 182.5Q285 204 212 232Q122 266 93 299Q64 332 64 380Q64 441 112.5 481Q161 521 235 521Q266 521 295.5 514.5Q325 508 355 495V433Q324 451 294.5 460Q265 469 235 469Q184 469 152.5 445.5Q121 422 121 383Q121 353 143 331.5Q165 310 238 282Q327 248 355.5 216Q384 184 384 138Q384 71 331.5 30Q279 -11 199 -11ZM95 612 205 791H260L370 612H325L232 733L139 612Z" glyph-name="scircumflex" horiz-adv-x="442" unicode="&#349;" /><glyph d="M269 660Q219 660 186.5 631Q154 602 154 558Q154 532 169 508Q184 484 229 448L389 322Q441 279 457.5 251.5Q474 224 474 191Q474 164 463 144Q452 124 429 110L407 136Q414 146 417.5 155Q421 164 421 174Q421 196 405 219Q389 242 350 273L168 422Q126 457 110.5 487Q95 517 95 558Q95 623 145.5 667.5Q196 712 269 712Q301 712 331.5 703.5Q362 695 389 679V619Q362 639 331.5 649.5Q301 660 269 660ZM227 -122Q278 -122 312.5 -92Q347 -62 347 -18Q347 9 331.5 32.5Q316 56 271 92L112 219Q61 259 43.5 287.5Q26 316 26 349Q26 375 37.5 395Q49 415 72 430L94 404Q87 394 83.5 385Q80 376 80 366Q80 344 96 321Q112 298 151 267L332 118Q373 85 389 55Q405 25 405 -17Q405 -81 352.5 -127.5Q300 -174 227 -174Q194 -174 162 -165Q130 -156 102 -138V-78Q131 -99 163 -110.5Q195 -122 227 -122Z" glyph-name="section" horiz-adv-x="500" unicode="&#167;" /><glyph d="M109 366Q89 366 75 380.5Q61 395 61 416Q61 436 75 450.5Q89 465 109 465Q129 465 143 450.5Q157 436 157 416Q157 395 143 380.5Q129 366 109 366ZM72 122H137Q137 66 115.5 2.5Q94 -61 64 -104H19Q41 -67 56.5 -1.5Q72 64 72 122Z" glyph-name="semicolon" horiz-adv-x="218" unicode=";" /><glyph d="M193 0H127Q231 136 311 300Q391 464 443 646H37V700H502V660Q473 526 375.5 313.5Q278 101 193 0Z" glyph-name="seven" horiz-adv-x="515" unicode="7" /><glyph d="M164 -122H95Q201 16 282 181Q363 346 411 524H22V580H470V540Q439 398 344 187Q249 -24 164 -122Z" glyph-name="seven.op" horiz-adv-x="500" /><glyph d="M300 412Q395 412 456.5 356Q518 300 518 209Q518 113 455 51Q392 -11 296 -11Q187 -11 115 79.5Q43 170 43 310Q43 486 142.5 598.5Q242 711 396 711Q427 711 456 706Q485 701 506 692V642Q481 651 453.5 655Q426 659 396 659Q265 659 184.5 563.5Q104 468 104 310Q104 308 104 305.5Q104 303 104 301Q133 350 189 381Q245 412 300 412ZM107 257Q119 159 171 100Q223 41 296 41Q371 41 415.5 84Q460 127 460 201Q460 273 413.5 317.5Q367 362 293 362Q240 362 188 332.5Q136 303 107 257Z" glyph-name="six" horiz-adv-x="559" unicode="6" /><glyph d="M300 412Q395 412 456.5 356Q518 300 518 209Q518 113 455 51Q392 -11 296 -11Q187 -11 115 79.5Q43 170 43 310Q43 486 142.5 598.5Q242 711 396 711Q430 711 461.5 705Q493 699 515 688V639Q490 649 460 654Q430 659 396 659Q265 659 184.5 563.5Q104 468 104 310Q104 308 104 305.5Q104 303 104 301Q133 350 189 381Q245 412 300 412ZM107 257Q119 159 171 100Q223 41 296 41Q371 41 415.5 84Q460 127 460 201Q460 273 413.5 317.5Q367 362 293 362Q240 362 188 332.5Q136 303 107 257Z" glyph-name="six.op" horiz-adv-x="559" /><glyph d="M65 -122H6L313 791H373Z" glyph-name="slash" horiz-adv-x="380" unicode="/" /><glyph glyph-name="space" horiz-adv-x="249" unicode=" " /><glyph d="M457 438 439 387H84L106 438H197Q253 587 312 649Q371 711 449 711Q480 711 500 706.5Q520 702 543 690V633Q517 647 496.5 652.5Q476 658 448 658Q391 658 346 607Q301 556 257 438ZM108 51H511V0H43V32L132 257H34L56 308H421L403 257H191Z" glyph-name="sterling" horiz-adv-x="582" unicode="&#163;" /><glyph d="M24 461V510H104V624L163 636V510H345L334 461H163V137Q163 93 187.5 69Q212 45 255 45Q291 45 318.5 50Q346 55 375 67V15Q352 3 320.5 -3Q289 -9 255 -9Q185 -9 144.5 27.5Q104 64 104 132V461Z" glyph-name="t" horiz-adv-x="401" unicode="t" /><glyph d="M375 67V15Q352 3 320.5 -3Q289 -9 255 -9Q185 -9 144.5 27.5Q104 64 104 132V273H26V322H104V461H24V510H104V624L163 636V510H345L334 461H163V322H338L326 273H163V137Q163 93 187.5 69Q212 45 255 45Q291 45 318.5 50Q346 55 375 67Z" glyph-name="tbar" horiz-adv-x="401" unicode="&#359;" /><glyph d="M24 461V510H104V624L163 636V510H345L334 461H163V137Q163 93 187.5 69Q212 45 255 45Q291 45 318.5 50Q346 55 375 67V15Q352 3 320.5 -3Q289 -9 255 -9Q185 -9 144.5 27.5Q104 64 104 132V461ZM260 566H218L243 818H313Z" glyph-name="tcaron" horiz-adv-x="401" unicode="&#357;" /><glyph d="M348 -145Q348 -186 312.5 -212.5Q277 -239 227 -239Q197 -239 171.5 -233Q146 -227 127 -215V-165Q150 -180 173.5 -187.5Q197 -195 227 -195Q259 -195 278 -182Q297 -169 297 -148Q297 -121 272 -108.5Q247 -96 194 -96L220 -6Q174 0 144 27Q104 64 104 132V461H24V510H104V624L163 636V510H345L334 461H163V137Q163 93 187.5 69Q212 45 255 45Q291 45 318.5 50Q346 55 375 67V15Q352 3 320 -3Q291 -8 259 -9L245 -56Q294 -63 321 -86.5Q348 -110 348 -145Z" glyph-name="tcommaaccent" horiz-adv-x="401" unicode="&#355;" /><glyph d="M309 469Q266 469 223 453Q180 437 149 411V74Q169 56 202.5 46.5Q236 37 275 37Q366 37 420.5 100.5Q475 164 475 268Q475 361 430 415Q385 469 309 469ZM275 -11Q239 -11 204 -2.5Q169 6 149 21V-228H90V791L149 802V458Q180 486 224.5 504Q269 522 312 522Q414 522 474.5 454Q535 386 535 268Q535 144 462 66.5Q389 -11 275 -11Z" glyph-name="thorn" horiz-adv-x="576" unicode="&#254;" /><glyph d="M208 -11Q156 -11 111.5 1.5Q67 14 29 39V99Q66 71 111 57Q156 43 209 43Q301 43 361 91.5Q421 140 421 216Q421 294 360 333.5Q299 373 179 373V396L382 646H58V700H446V645L256 417Q354 411 418 358Q482 305 482 225Q482 124 402.5 56.5Q323 -11 208 -11Z" glyph-name="three" horiz-adv-x="530" unicode="3" /><glyph d="M203 -133Q151 -133 106.5 -120.5Q62 -108 24 -83V-23Q60 -51 105 -65Q150 -79 204 -79Q296 -79 356 -30.5Q416 18 416 94Q416 172 355 211.5Q294 251 174 251V274L377 527H53V580H441V526L250 295Q348 289 412 236Q476 183 476 103Q476 1 397 -66Q318 -133 203 -133Z" glyph-name="three.op" horiz-adv-x="527" /><glyph d="M115 332Q86 332 61 338Q36 344 16 357V406Q36 392 59.5 385Q83 378 111 378Q154 378 181 398.5Q208 419 208 453Q208 488 179 505Q150 522 90 522V540L185 653H31V701H245V658L155 553Q203 548 233 521.5Q263 495 263 455Q263 402 220 367Q177 332 115 332Z" glyph-name="threesuperior" horiz-adv-x="288" unicode="&#179;" /><glyph d="M326 627Q309 627 292.5 638Q276 649 249 685Q225 714 213 723Q201 732 190 732Q170 732 158 709Q146 686 138 627H93Q96 699 124 744Q152 789 197 789Q214 789 230.5 777.5Q247 766 275 731Q297 702 309 693Q321 684 332 684Q353 684 365 708.5Q377 733 384 789H430Q427 716 399 671.5Q371 627 326 627Z" glyph-name="tilde" horiz-adv-x="523" unicode="&#732;" /><glyph d="M335 776Q318 776 300.5 787Q283 798 253 834Q227 863 214 872Q201 881 190 881Q170 881 158 858Q146 835 138 776H93Q96 848 124 893Q152 938 197 938Q214 938 231.5 927Q249 916 280 880Q305 851 317.5 842.5Q330 834 341 834Q362 834 374 858Q386 882 393 938H439Q436 865 408 820.5Q380 776 335 776Z" glyph-name="tilde.cap" horiz-adv-x="523" /><glyph d="M177 656V375H125V656H26V701H276V656ZM570 645 509 460H465L404 645H399L380 375H329L357 701H434L486 528H492L544 701H618L646 375H595L576 645Z" glyph-name="trademark" horiz-adv-x="702" unicode="&#8482;" /><glyph d="M398 516Q398 582 358 619.5Q318 657 247 657Q193 657 140 633.5Q87 610 48 569V630Q86 667 139.5 689Q193 711 248 711Q344 711 401 657Q458 603 458 515Q458 425 362.5 299Q267 173 111 51H484V0H28V42Q223 206 310.5 319Q398 432 398 516Z" glyph-name="two" horiz-adv-x="519" unicode="2" /><glyph d="M255 200Q330 262 362 312Q394 362 394 414Q394 470 355 503.5Q316 537 252 537Q198 537 145 513.5Q92 490 54 449V510Q90 546 144.5 568.5Q199 591 253 591Q343 591 398.5 541.5Q454 492 454 413Q454 334 381 251.5Q308 169 126 51H483V0H43V42Q138 109 181 141.5Q224 174 255 200Z" glyph-name="two.op" horiz-adv-x="525" /><glyph d="M196 595Q196 625 178 641.5Q160 658 128 658Q102 658 74.5 646Q47 634 24 614V667Q47 685 77 696Q107 707 137 707Q190 707 221.5 678.5Q253 650 253 603Q253 557 209.5 499.5Q166 442 89 384H267V337H15V375Q113 456 154.5 507Q196 558 196 595Z" glyph-name="twosuperior" horiz-adv-x="284" unicode="&#178;" /><glyph d="M425 510H484V8L425 -3V53Q391 25 343 7Q295 -11 249 -11Q169 -11 126.5 33Q84 77 84 158V510H143V174Q143 104 170.5 73.5Q198 43 259 43Q302 43 341 56Q380 69 425 99Z" glyph-name="u" horiz-adv-x="575" unicode="u" /><glyph d="M425 510H484V8L425 -3V53Q391 25 343 7Q295 -11 249 -11Q169 -11 126.5 33Q84 77 84 158V510H143V174Q143 104 170.5 73.5Q198 43 259 43Q302 43 341 56Q380 69 425 99ZM414 791 297 612H261L332 791Z" glyph-name="uacute" horiz-adv-x="575" unicode="&#250;" /><glyph d="M425 510H484V8L425 -3V53Q391 25 343 7Q295 -11 249 -11Q169 -11 126.5 33Q84 77 84 158V510H143V174Q143 104 170.5 73.5Q198 43 259 43Q302 43 341 56Q380 69 425 99ZM284 612Q221 612 184 660.5Q147 709 147 791H194Q197 729 220.5 695Q244 661 284 661Q325 661 348.5 695.5Q372 730 374 791H422Q422 709 385 660.5Q348 612 284 612Z" glyph-name="ubreve" horiz-adv-x="575" unicode="&#365;" /><glyph d="M425 510H484V8L425 -3V53Q391 25 343 7Q295 -11 249 -11Q169 -11 126.5 33Q84 77 84 158V510H143V174Q143 104 170.5 73.5Q198 43 259 43Q302 43 341 56Q380 69 425 99ZM147 612 257 791H312L422 612H377L284 733L191 612Z" glyph-name="ucircumflex" horiz-adv-x="575" unicode="&#251;" /><glyph d="M425 510H484V8L425 -3V53Q391 25 343 7Q295 -11 249 -11Q169 -11 126.5 33Q84 77 84 158V510H143V174Q143 104 170.5 73.5Q198 43 259 43Q302 43 341 56Q380 69 425 99ZM371 663Q352 663 338.5 676.5Q325 690 325 709Q325 727 338.5 740.5Q352 754 371 754Q389 754 402.5 740.5Q416 727 416 709Q416 690 402.5 676.5Q389 663 371 663ZM198 663Q179 663 165.5 676.5Q152 690 152 709Q152 727 165.5 740.5Q179 754 198 754Q216 754 229.5 740.5Q243 727 243 709Q243 690 229.5 676.5Q216 663 198 663Z" glyph-name="udieresis" horiz-adv-x="575" unicode="&#252;" /><glyph d="M425 510H484V8L425 -3V53Q391 25 343 7Q295 -11 249 -11Q169 -11 126.5 33Q84 77 84 158V510H143V174Q143 104 170.5 73.5Q198 43 259 43Q302 43 341 56Q380 69 425 99ZM238 791 309 612H272L156 791Z" glyph-name="ugrave" horiz-adv-x="575" unicode="&#249;" /><glyph d="M425 510H484V8L425 -3V53Q391 25 343 7Q295 -11 249 -11Q169 -11 126.5 33Q84 77 84 158V510H143V174Q143 104 170.5 73.5Q198 43 259 43Q302 43 341 56Q380 69 425 99ZM215 612H177L248 791H329ZM379 612H341L412 791H493Z" glyph-name="uhungarumlaut" horiz-adv-x="575" unicode="&#369;" /><glyph d="M425 510H484V8L425 -3V53Q391 25 343 7Q295 -11 249 -11Q169 -11 126.5 33Q84 77 84 158V510H143V174Q143 104 170.5 73.5Q198 43 259 43Q302 43 341 56Q380 69 425 99ZM417 706V656H151V706Z" glyph-name="umacron" horiz-adv-x="575" unicode="&#363;" /><glyph d="M330 -112H70V-61H330Z" glyph-name="underscore" horiz-adv-x="400" unicode="_" /><glyph glyph-name="uni000D" horiz-adv-x="249" unicode="" /><glyph d="M201 -50H266Q266 -100 236 -152.5Q206 -205 167 -228H123Q155 -199 178 -148.5Q201 -98 201 -50Z" glyph-name="uni00200326" horiz-adv-x="431" /><glyph d="M209 613H145Q145 663 174.5 715.5Q204 768 243 791H288Q255 763 232 712Q209 661 209 613Z" glyph-name="uni00200326.alt" horiz-adv-x="431" /><glyph glyph-name="uni00A0" horiz-adv-x="249" unicode="&#160;" /><glyph d="M426 655Q290 655 198.5 568.5Q107 482 107 347Q107 207 193.5 126Q280 45 422 45Q455 45 486.5 48Q518 51 545 56V302H604V11Q567 1 516.5 -5Q466 -11 422 -11Q256 -11 150 87.5Q44 186 44 347Q44 504 154.5 607.5Q265 711 426 711Q476 711 522 703Q568 695 603 681V622Q570 637 522 646Q474 655 426 655ZM379 -50H444Q444 -100 414 -152.5Q384 -205 345 -228H301Q333 -199 356 -148.5Q379 -98 379 -50Z" glyph-name="uni0122" horiz-adv-x="666" unicode="&#290;" /><glyph d="M241 220Q300 220 338 255Q376 290 376 347Q376 405 338.5 439.5Q301 474 241 474Q182 474 144 439.5Q106 405 106 347Q106 290 144.5 255Q183 220 241 220ZM493 -66Q493 -143 418.5 -191Q344 -239 236 -239Q136 -239 71 -198Q6 -157 6 -93Q6 -44 43.5 -7.5Q81 29 144 44Q130 56 122 71.5Q114 87 114 102Q114 125 129 145.5Q144 166 173 184Q115 203 81 246.5Q47 290 47 347Q47 422 103 471.5Q159 521 241 521Q258 521 275.5 518Q293 515 309 510H507L496 462H387Q410 438 422.5 408.5Q435 379 435 347Q435 272 379.5 223Q324 174 241 174Q231 174 226 174Q221 174 217 175Q190 161 176.5 146.5Q163 132 163 117Q163 99 177.5 88.5Q192 78 220 75L321 62Q414 50 453.5 19.5Q493 -11 493 -66ZM65 -87Q65 -136 111.5 -163.5Q158 -191 236 -191Q322 -191 379.5 -158.5Q437 -126 437 -72Q437 -39 411.5 -20Q386 -1 317 8L196 25Q137 14 101 -16Q65 -46 65 -87ZM287 613H223Q223 663 252.5 715.5Q282 768 321 791H366Q333 763 310 712Q287 661 287 613Z" glyph-name="uni0123" horiz-adv-x="515" unicode="&#291;" /><glyph d="M650 0H560L164 342V0H103V700H164V369L514 700H597L230 363ZM291 -50H356Q356 -100 326 -152.5Q296 -205 257 -228H213Q245 -199 268 -148.5Q291 -98 291 -50Z" glyph-name="uni0136" horiz-adv-x="666" unicode="&#310;" /><glyph d="M525 0H442L149 258V0H90V791L149 802V280L412 510H490L218 274ZM241 -50H306Q306 -100 276 -152.5Q246 -205 207 -228H163Q195 -199 218 -148.5Q241 -98 241 -50Z" glyph-name="uni0137" horiz-adv-x="539" unicode="&#311;" /><glyph d="M103 0V700H164V54H515V0ZM278 -50H343Q343 -100 313 -152.5Q283 -205 244 -228H200Q232 -199 255 -148.5Q278 -98 278 -50Z" glyph-name="uni013B" horiz-adv-x="559" unicode="&#315;" /><glyph d="M149 0H90V791L149 802ZM88 -50H153Q153 -100 123 -152.5Q93 -205 54 -228H10Q42 -199 65 -148.5Q88 -98 88 -50Z" glyph-name="uni013C" horiz-adv-x="239" unicode="&#316;" /><glyph d="M640 0H586L162 613V0H103V700H171L581 100V700H640ZM340 -50H405Q405 -100 375 -152.5Q345 -205 306 -228H262Q294 -199 317 -148.5Q340 -98 340 -50Z" glyph-name="uni0145" horiz-adv-x="743" unicode="&#325;" /><glyph d="M90 0V502L149 514V456Q185 485 234.5 503Q284 521 331 521Q414 521 457.5 477.5Q501 434 501 353V0H442V337Q442 406 413 437Q384 468 321 468Q275 468 233.5 454.5Q192 441 149 411V0ZM276 -50H341Q341 -100 311 -152.5Q281 -205 242 -228H198Q230 -199 253 -148.5Q276 -98 276 -50Z" glyph-name="uni0146" horiz-adv-x="585" unicode="&#326;" /><glyph d="M290 646H164V353H350Q408 365 442 405.5Q476 446 476 505Q476 574 428.5 610Q381 646 290 646ZM394 314Q437 242 505 154Q573 66 637 0H558Q505 54 444.5 135Q384 216 332 301H164V0H103V700H289Q412 700 476.5 650Q541 600 541 505Q541 439 501 388Q461 337 394 314ZM269 -50H334Q334 -100 304 -152.5Q274 -205 235 -228H191Q223 -199 246 -148.5Q269 -98 269 -50Z" glyph-name="uni0156" horiz-adv-x="655" unicode="&#342;" /><glyph d="M149 378V0H90V502L149 514V425Q189 476 243.5 500Q298 524 357 515V456Q300 467 248 447.5Q196 428 149 378ZM87 -50H152Q152 -100 122 -152.5Q92 -205 53 -228H9Q41 -199 64 -148.5Q87 -98 87 -50Z" glyph-name="uni0157" horiz-adv-x="374" unicode="&#343;" /><glyph d="M346 -145Q346 -186 310.5 -212.5Q275 -239 225 -239Q195 -239 169.5 -233Q144 -227 125 -215V-165Q148 -180 171.5 -187.5Q195 -195 225 -195Q257 -195 276 -182Q295 -169 295 -148Q295 -121 270 -108.5Q245 -96 192 -96L217 -10Q171 -7 124 6Q63 24 27 51V118Q77 81 131.5 62.5Q186 44 244 44Q327 44 376.5 81Q426 118 426 179Q426 209 412 233.5Q398 258 368 278Q352 289 330 300Q308 311 260 331Q201 355 174.5 369.5Q148 384 129 399Q96 424 80.5 455.5Q65 487 65 526Q65 606 129 658.5Q193 711 286 711Q335 711 376.5 701.5Q418 692 456 672V608Q412 634 373.5 645.5Q335 657 286 657Q214 657 170 622Q126 587 126 529Q126 487 157 455.5Q188 424 290 381Q349 357 376.5 342.5Q404 328 423 312Q456 286 472 254Q488 222 488 182Q488 99 418 44Q353 -8 256 -11L243 -56Q292 -63 319 -86.5Q346 -110 346 -145Z" glyph-name="uni015E" horiz-adv-x="535" unicode="&#350;" /><glyph d="M306 -145Q306 -186 270.5 -212.5Q235 -239 185 -239Q155 -239 129.5 -233Q104 -227 85 -215V-165Q108 -180 131.5 -187.5Q155 -195 185 -195Q217 -195 236 -182Q255 -169 255 -148Q255 -121 230 -108.5Q205 -96 152 -96L177 -10Q142 -8 111 0Q70 10 42 29V92Q77 66 114.5 53.5Q152 41 199 41Q255 41 291.5 66Q328 91 328 131Q328 161 306.5 182.5Q285 204 212 232Q122 266 93 299Q64 332 64 380Q64 441 112.5 481Q161 521 235 521Q266 521 295.5 514.5Q325 508 355 495V433Q324 451 294.5 460Q265 469 235 469Q184 469 152.5 445.5Q121 422 121 383Q121 353 143 331.5Q165 310 238 282Q327 248 355.5 216Q384 184 384 138Q384 71 331 30Q285 -6 216 -10L203 -56Q252 -63 279 -86.5Q306 -110 306 -145Z" glyph-name="uni015F" horiz-adv-x="442" unicode="&#351;" /><glyph d="M466 384 448 333H93L115 384H240L257 469Q281 591 336 651Q391 711 478 711Q498 711 515.5 708Q533 705 547 700V648Q532 652 516.5 654Q501 656 482 656Q416 656 375 611.5Q334 567 317 477L298 384ZM198 121 224 257H283L258 129Q234 8 178 -52.5Q122 -113 34 -113Q16 -113 -2.5 -110Q-21 -107 -36 -101V-49Q-23 -53 -8 -55Q7 -57 30 -57Q96 -57 138.5 -12.5Q181 32 198 121Z" glyph-name="uni0192" horiz-adv-x="562" unicode="&#402;" /><glyph d="M245 -11Q186 -11 124.5 6.5Q63 24 27 51V118Q77 81 131.5 62.5Q186 44 244 44Q327 44 376.5 81Q426 118 426 179Q426 209 412 233.5Q398 258 368 278Q352 289 330 300Q308 311 260 331Q201 355 174.5 369.5Q148 384 129 399Q96 424 80.5 455.5Q65 487 65 526Q65 606 129 658.5Q193 711 286 711Q335 711 376.5 701.5Q418 692 456 672V608Q412 634 373.5 645.5Q335 657 286 657Q214 657 170 622Q126 587 126 529Q126 487 157 455.5Q188 424 290 381Q349 357 376.5 342.5Q404 328 423 312Q456 286 472 254Q488 222 488 182Q488 99 418.5 44Q349 -11 245 -11ZM222 -50H287Q287 -100 257 -152.5Q227 -205 188 -228H144Q176 -199 199 -148.5Q222 -98 222 -50Z" glyph-name="uni0218" horiz-adv-x="535" unicode="&#536;" /><glyph d="M199 -11Q152 -11 111 -0.5Q70 10 42 29V92Q77 66 114.5 53.5Q152 41 199 41Q255 41 291.5 66Q328 91 328 131Q328 161 306.5 182.5Q285 204 212 232Q122 266 93 299Q64 332 64 380Q64 441 112.5 481Q161 521 235 521Q266 521 295.5 514.5Q325 508 355 495V433Q324 451 294.5 460Q265 469 235 469Q184 469 152.5 445.5Q121 422 121 383Q121 353 143 331.5Q165 310 238 282Q327 248 355.5 216Q384 184 384 138Q384 71 331.5 30Q279 -11 199 -11ZM174 -50H239Q239 -100 209 -152.5Q179 -205 140 -228H96Q128 -199 151 -148.5Q174 -98 174 -50Z" glyph-name="uni0219" horiz-adv-x="442" unicode="&#537;" /><glyph d="M299 646H28V700H629V646H360V0H299ZM298 -50H363Q363 -100 333 -152.5Q303 -205 264 -228H220Q252 -199 275 -148.5Q298 -98 298 -50Z" glyph-name="uni021A" horiz-adv-x="657" unicode="&#538;" /><glyph d="M24 461V510H104V624L163 636V510H345L334 461H163V137Q163 93 187.5 69Q212 45 255 45Q291 45 318.5 50Q346 55 375 67V15Q352 3 320.5 -3Q289 -9 255 -9Q185 -9 144.5 27.5Q104 64 104 132V461ZM206 -50H271Q271 -100 241 -152.5Q211 -205 172 -228H128Q160 -199 183 -148.5Q206 -98 206 -50Z" glyph-name="uni021B" horiz-adv-x="401" unicode="&#539;" /><glyph d="M149 514V5Q147 -71 131.5 -121Q116 -171 71 -228H4Q49 -179 68 -127Q87 -75 90 5V502Z" glyph-name="uni0237" horiz-adv-x="239" unicode="&#567;" /><glyph d="M269 557H155V367H269Q351 367 390 391Q429 415 429 465Q429 515 393.5 536Q358 557 269 557ZM472 208Q472 263 434 290Q396 317 319 317H155V103H319Q397 103 434.5 129Q472 155 472 208ZM536 209Q536 133 482 92Q428 51 327 51H317V-123H264V51H96V609H264V762H317V608Q405 604 448 570Q491 536 491 471Q491 425 458.5 391Q426 357 376 349Q452 341 494 304.5Q536 268 536 209Z" glyph-name="uni0E3F" horiz-adv-x="589" unicode="&#3647;" /><glyph d="M318 329V-132H306Q197 -132 128.5 -94Q60 -56 60 4Q60 49 91.5 77Q123 105 176 105Q188 105 199.5 103Q211 101 221 97V58Q214 60 203 61Q192 62 184 62Q151 62 133 48Q115 34 115 8Q115 -29 159 -54Q203 -79 262 -81V329H93L115 379H262V396Q262 449 224.5 479.5Q187 510 106 521Q106 602 163.5 656Q221 710 308 710Q346 710 382 701Q418 692 452 674V620Q416 638 380.5 646.5Q345 655 308 655Q249 655 211.5 630Q174 605 165 561Q235 552 276.5 508.5Q318 465 318 401V379H466L448 329Z" glyph-name="uni17DB" horiz-adv-x="518" unicode="&#6107;" /><glyph d="M311 -77H261L299 77Q275 78 252.5 81.5Q230 85 209 92L167 -77H117L165 112Q101 147 65 209Q29 271 29 346Q29 450 90.5 525Q152 600 251 617L290 773H340L302 622H305Q326 622 349 618.5Q372 615 393 609L434 773H484L426 541Q402 555 371 562Q340 569 305 569Q211 569 150 507Q89 445 89 346Q89 250 150.5 189.5Q212 129 305 129Q337 129 371 137Q405 145 431 159V104Q415 96 393.5 90Q372 84 350 81Z" glyph-name="uni20A1" horiz-adv-x="525" unicode="&#8353;" /><glyph d="M581 0 449 605 317 0H261L195 287H40V334H184L161 433H40V480H151L100 700H160L293 103L420 700H480L607 103L740 700H798L747 480H873V433H737L714 334H873V287H703L637 0Z" glyph-name="uni20A9" horiz-adv-x="913" unicode="&#8361;" /><glyph d="M100 0V700H294Q398 700 443 655.5Q488 611 488 508V162H432V508Q432 586 402 616.5Q372 647 294 647H156V0ZM654 700V192Q654 89 609 44.5Q564 0 460 0H266V521H322V53H460Q538 53 568 83.5Q598 114 598 192V700Z" glyph-name="uni20AA" horiz-adv-x="754" unicode="&#8362;" /><glyph d="M263 173Q305 173 343.5 190Q382 207 414 239V390Q391 407 356 416.5Q321 426 282 426Q211 426 168.5 391Q126 356 126 293Q126 238 164.5 205.5Q203 173 263 173ZM414 128V192Q382 160 338.5 140Q295 120 253 120Q172 120 118 168Q64 216 64 292Q64 375 124.5 426.5Q185 478 278 478Q315 478 352.5 467.5Q390 457 414 440V580H194V632H414V700H472V632H572V580H472V144ZM477 0H109V52H477Z" glyph-name="uni20AB" horiz-adv-x="602" unicode="&#8363;" /><glyph d="M561 389V334H348L681 0H604L249 355L554 700H628L350 389ZM214 700V0H153V334H40V389H153V700Z" glyph-name="uni20AD" horiz-adv-x="701" unicode="&#8365;" /><glyph d="M499 469 121 339V393L279 447V645H40V700H580V645H340V468L499 523ZM340 284V0H279V263L121 209V263L499 393V339Z" glyph-name="uni20AE" horiz-adv-x="620" unicode="&#8366;" /><glyph d="M532 486Q532 564 486.5 605Q441 646 355 646H237V327H355Q441 327 486.5 367.5Q532 408 532 486ZM350 273H237V0H176V385H40V437H176V537H42V589H176V700H350Q430 700 486.5 671.5Q543 643 569 589H705V537H585Q588 524 589 511Q590 498 590 486Q590 471 589 459Q588 447 586 437H705V385H569Q544 331 487 302Q430 273 350 273Z" glyph-name="uni20B1" horiz-adv-x="745" unicode="&#8369;" /><glyph d="M601 396H40V447H442Q459 464 467.5 484.5Q476 505 476 529Q476 588 433 622.5Q390 657 319 657Q269 657 229 645.5Q189 634 146 608V670Q185 690 228.5 700.5Q272 711 319 711Q411 711 474 658.5Q537 606 537 526Q537 505 530 484.5Q523 464 510 447H601ZM357 -11Q251 -11 183.5 39.5Q116 90 116 171Q116 197 126 221Q136 245 156 266H40V317H601V266H223Q200 248 188 224Q176 200 176 172Q176 112 224.5 78Q273 44 358 44Q416 44 470.5 62.5Q525 81 575 118V53Q538 25 476.5 7Q415 -11 357 -11Z" glyph-name="uni20B4" horiz-adv-x="641" unicode="&#8372;" /><glyph d="M580 645H40V700H580ZM279 511H40V566H580V511H340V0H279Z" glyph-name="uni20B8" horiz-adv-x="620" unicode="&#8376;" /><glyph d="M323 315Q364 244 432.5 154.5Q501 65 565 0H488Q434 55 372.5 137.5Q311 220 263 301H61L81 352H282Q334 364 369 396Q404 428 413 475H60L80 526H413Q404 583 352 616Q300 649 220 649H62L82 700H595L575 649H370Q414 632 439.5 601Q465 570 470 526H595L575 475H469Q461 419 422.5 376.5Q384 334 323 315Z" glyph-name="uni20B9" horiz-adv-x="655" unicode="&#8377;" /><glyph d="M444 -239Q404 -239 377.5 -214.5Q351 -190 351 -148Q351 -110 368 -76Q385 -42 425 -2V53Q391 25 343 7Q295 -11 249 -11Q169 -11 126.5 33Q84 77 84 158V510H143V174Q143 104 170.5 73.5Q198 43 259 43Q302 43 341 56Q380 69 425 99V510H484V8Q437 -43 419.5 -74.5Q402 -106 402 -139Q402 -163 415.5 -178Q429 -193 449 -193Q459 -193 466 -191.5Q473 -190 484 -186V-232Q473 -236 464 -237.5Q455 -239 444 -239Z" glyph-name="uogonek" horiz-adv-x="575" unicode="&#371;" /><glyph d="M425 510H484V8L425 -3V53Q391 25 343 7Q295 -11 249 -11Q169 -11 126.5 33Q84 77 84 158V510H143V174Q143 104 170.5 73.5Q198 43 259 43Q302 43 341 56Q380 69 425 99ZM284 802Q327 802 357.5 771.5Q388 741 388 699Q388 656 357.5 625.5Q327 595 284 595Q242 595 211.5 625.5Q181 656 181 699Q181 741 211.5 771.5Q242 802 284 802ZM284 762Q260 762 241.5 743Q223 724 223 699Q223 673 241 654Q259 635 284 635Q310 635 328 653.5Q346 672 346 699Q346 724 328 743Q310 762 284 762Z" glyph-name="uring" horiz-adv-x="575" unicode="&#367;" /><glyph d="M425 510H484V8L425 -3V53Q391 25 343 7Q295 -11 249 -11Q169 -11 126.5 33Q84 77 84 158V510H143V174Q143 104 170.5 73.5Q198 43 259 43Q302 43 341 56Q380 69 425 99ZM353 627Q336 627 319.5 638Q303 649 276 685Q252 714 240 723Q228 732 217 732Q197 732 185 709Q173 686 165 627H120Q123 699 151 744Q179 789 224 789Q241 789 257.5 777.5Q274 766 302 731Q324 702 336 693Q348 684 359 684Q380 684 392 708.5Q404 733 411 789H457Q454 716 426 671.5Q398 627 353 627Z" glyph-name="utilde" horiz-adv-x="575" unicode="&#361;" /><glyph d="M495 510 282 -5H229L16 510H78L258 66L435 510Z" glyph-name="v" horiz-adv-x="512" unicode="v" /><glyph d="M206 76 336 510H381L515 76L643 510H699L537 -5H486L357 415L229 -5H177L16 510H74Z" glyph-name="w" horiz-adv-x="715" unicode="w" /><glyph d="M206 76 336 510H381L515 76L643 510H699L537 -5H486L357 415L229 -5H177L16 510H74ZM487 791 370 612H334L405 791Z" glyph-name="wacute" horiz-adv-x="715" unicode="&#7811;" /><glyph d="M206 76 336 510H381L515 76L643 510H699L537 -5H486L357 415L229 -5H177L16 510H74ZM221 612 331 791H386L496 612H451L358 733L265 612Z" glyph-name="wcircumflex" horiz-adv-x="715" unicode="&#373;" /><glyph d="M206 76 336 510H381L515 76L643 510H699L537 -5H486L357 415L229 -5H177L16 510H74ZM445 663Q426 663 412.5 676.5Q399 690 399 709Q399 727 412.5 740.5Q426 754 445 754Q463 754 476.5 740.5Q490 727 490 709Q490 690 476.5 676.5Q463 663 445 663ZM272 663Q253 663 239.5 676.5Q226 690 226 709Q226 727 239.5 740.5Q253 754 272 754Q290 754 303.5 740.5Q317 727 317 709Q317 690 303.5 676.5Q290 663 272 663Z" glyph-name="wdieresis" horiz-adv-x="715" unicode="&#7813;" /><glyph d="M206 76 336 510H381L515 76L643 510H699L537 -5H486L357 415L229 -5H177L16 510H74ZM312 791 383 612H346L230 791Z" glyph-name="wgrave" horiz-adv-x="715" unicode="&#7809;" /><glyph d="M483 0H414L250 225L85 0H20L219 265L37 510H106L252 309L400 510H465L283 268Z" glyph-name="x" horiz-adv-x="503" unicode="x" /><glyph d="M34 -188Q97 -188 135 -145.5Q173 -103 226 26L16 510H78L257 87L437 510H496L275 5Q206 -150 159 -194.5Q112 -239 37 -239Q25 -239 13 -237Q1 -235 -7 -231V-181Q2 -184 12.5 -186Q23 -188 34 -188Z" glyph-name="y" horiz-adv-x="512" unicode="y" /><glyph d="M34 -188Q97 -188 135 -145.5Q173 -103 226 26L16 510H78L257 87L437 510H496L275 5Q206 -150 159 -194.5Q112 -239 37 -239Q25 -239 13 -237Q1 -235 -7 -231V-181Q2 -184 12.5 -186Q23 -188 34 -188ZM374 791 257 612H221L292 791Z" glyph-name="yacute" horiz-adv-x="512" unicode="&#253;" /><glyph d="M34 -188Q97 -188 135 -145.5Q173 -103 226 26L16 510H78L257 87L437 510H496L275 5Q206 -150 159 -194.5Q112 -239 37 -239Q25 -239 13 -237Q1 -235 -7 -231V-181Q2 -184 12.5 -186Q23 -188 34 -188ZM107 612 217 791H272L382 612H337L244 733L151 612Z" glyph-name="ycircumflex" horiz-adv-x="512" unicode="&#375;" /><glyph d="M34 -188Q97 -188 135 -145.5Q173 -103 226 26L16 510H78L257 87L437 510H496L275 5Q206 -150 159 -194.5Q112 -239 37 -239Q25 -239 13 -237Q1 -235 -7 -231V-181Q2 -184 12.5 -186Q23 -188 34 -188ZM331 663Q312 663 298.5 676.5Q285 690 285 709Q285 727 298.5 740.5Q312 754 331 754Q349 754 362.5 740.5Q376 727 376 709Q376 690 362.5 676.5Q349 663 331 663ZM158 663Q139 663 125.5 676.5Q112 690 112 709Q112 727 125.5 740.5Q139 754 158 754Q176 754 189.5 740.5Q203 727 203 709Q203 690 189.5 676.5Q176 663 158 663Z" glyph-name="ydieresis" horiz-adv-x="512" unicode="&#255;" /><glyph d="M525 420V369H99V420H249L34 700H105L314 422L521 700H589L375 420ZM525 290V239H342V0H281V239H99V290Z" glyph-name="yen" horiz-adv-x="623" unicode="&#165;" /><glyph d="M34 -188Q97 -188 135 -145.5Q173 -103 226 26L16 510H78L257 87L437 510H496L275 5Q206 -150 159 -194.5Q112 -239 37 -239Q25 -239 13 -237Q1 -235 -7 -231V-181Q2 -184 12.5 -186Q23 -188 34 -188ZM198 791 269 612H232L116 791Z" glyph-name="ygrave" horiz-adv-x="512" unicode="&#7923;" /><glyph d="M116 49H453L440 0H38V34L351 461H49V510H429V477Z" glyph-name="z" horiz-adv-x="476" unicode="z" /><glyph d="M116 49H453L440 0H38V34L351 461H49V510H429V477ZM374 791 257 612H221L292 791Z" glyph-name="zacute" horiz-adv-x="476" unicode="&#378;" /><glyph d="M116 49H453L440 0H38V34L351 461H49V510H429V477ZM383 791 273 612H218L108 791H152L245 670L338 791Z" glyph-name="zcaron" horiz-adv-x="476" unicode="&#382;" /><glyph d="M116 49H453L440 0H38V34L351 461H49V510H429V477ZM245 663Q226 663 213 676.5Q200 690 200 709Q200 727 213.5 740.5Q227 754 245 754Q264 754 277.5 740.5Q291 727 291 709Q291 690 277.5 676.5Q264 663 245 663Z" glyph-name="zdotaccent" horiz-adv-x="476" unicode="&#380;" /><glyph d="M43 350Q43 513 114.5 612Q186 711 305 711Q424 711 495.5 612Q567 513 567 350Q567 187 495.5 88Q424 -11 305 -11Q186 -11 114.5 88Q43 187 43 350ZM103 350Q103 212 158 127Q213 42 305 42Q397 42 452 127Q507 212 507 350Q507 488 452 573Q397 658 305 658Q213 658 158 573Q103 488 103 350Z" glyph-name="zero" horiz-adv-x="610" unicode="0" /><glyph d="M529 290Q529 160 459 74.5Q389 -11 286 -11Q183 -11 113 74.5Q43 160 43 290Q43 420 113 505.5Q183 591 286 591Q389 591 459 505.5Q529 420 529 290ZM102 290Q102 181 153.5 111.5Q205 42 286 42Q367 42 418.5 111.5Q470 181 470 290Q470 399 418.5 468.5Q367 538 286 538Q205 538 153.5 468.5Q102 399 102 290Z" glyph-name="zero.op" horiz-adv-x="572" /></font>
</defs>
</svg>
